Subcategories

Yo-Yo Ma - Obrigado Brazil (2003)

Posted By: amusic
Yo-Yo Ma - Obrigado Brazil (2003)

Yo-Yo Ma - Obrigado Brazil (2003)
Classical, Latin / Brazil | FLAC (cue, log, scans) | 01:11:51 | 345 MB

This enchanting, flavorful CD finds the ever curious Yo-Yo Ma traveling to South America, and Brazil in particular. The music varies from classical to samba to bossa nova; the combinations range from guitar, flute, and cello to female voice (the remarkable Rosa Passos), cello, guitar, percussion, piano, and bass; to simple cello and piano; to cello and two guitars. The overriding element is rhythm; each selection has a beat which is both infectious and sensual, but the contexts are splendidly varied. "Dansa brasileira" has a Debussy-like, impressionistic flavor, "Dansa negra" is sultry with an easy melody, "1 x 0" is a dance scored for guitar, percussion, and cello with a solo clarinet riff. It's impossible to get bored or tired listening to this creative CD; it's unique – just like Yo-Yo Ma himself – and endlessly surprising.

Tracklist

1. Cristal
Composed by Cesar Camargo Mariano
with Cesar Camargo Mariano, Yo-Yo Ma

2. Chega de Saudade
Composed by Antonio Carlos Jobim
with Cyro Baptista, Nilson Matta, Paulo Braga, Rosa Passos, Helio Alves, Yo-Yo Ma

3. A lenda do caboclo, for piano, A. 166
Composed by Heitor Villa-Lobos
with Odair Assad, Sergio Assad, Yo-Yo Ma

4. Doce de Coco
Composed by Jacob do Bandolim
with Romero Lubambo, Yo-Yo Ma, Paquito D'Rivera

5. Dansas Brasilerias for orchestra
Composed by Camargo Guarnieri
with Kathryn Stott, Yo-Yo Ma

6. Apelo
Composed by Baden Powell, Vinicius de Moraes
with Cyro Baptista, Nilson Matta, Oscar Castro-Neves, Paulo Braga, Helio Alves, Yo-Yo Ma

7. Dança negra
Composed by Camargo Guarnieri
with Kathryn Stott, Yo-Yo Ma

8. Um a Zero
Composed by Pixinguinha
with Romero Lubambo, Cyro Baptista, Yo-Yo Ma, Paquito D'Rivera

9. Menino
Composed by Sergio Assad
with Odair Assad, Sergio Assad, Yo-Yo Ma

10. Samambaia
Composed by Cesar Camargo Mariano
with Odair Assad, Sergio Assad, Yo-Yo Ma

11. Carinhoso
Composed by Pixinguinha
with Romero Lubambo, Cyro Baptista, Yo-Yo Ma, Paquito D'Rivera

12. Chôros No. 5, for piano, "Alma brasiliera", A. 207
Composed by Heitor Villa-Lobos
with Kathryn Stott, Yo-Yo Ma

13. Amor em paz
Composed by Antonio Carlos Jobim
with Cyro Baptista, Nilson Matta, Oscar Castro-Neves, Paulo Braga, Rosa Passos, Helio Alves, Yo-Yo Ma

14. Bodas de Prata (Gismonti) / Quatro Cantos (Carneiro)
Composed by Various Composers
with Egberto Gismonti, Yo-Yo Ma

15. Brasileirinho
Composed by Waldyr Azevedo
with Romero Lubambo, Jose De Faria, Helio Alves, Yo-Yo Ma, Paquito D'Rivera, Jose Da Silva, Cyro Baptista, Nilson Matta

16. Salvador
Composed by Egberto Gismonti
with Egberto Gismonti, Yo-Yo Ma

Amazon


EAC extraction logfile from 14. March 2005, 17:03 for CD
Yo-Yo Ma / Obrigado Brazil

Used drive : _NEC DVD_RW ND-3500AG Adapter: 1 ID: 0
Read mode : Secure with NO C2, accurate stream, disable cache
Read offset correction : 66
Overread into Lead-In and Lead-Out : No

Used output format : Internal WAV Routines
44.100 Hz; 16 Bit; Stereo

Other options :
Fill up missing offset samples with silence : Yes
Delete leading and trailing silent blocks : No
Installed external ASPI interface


Track 1
Filename D:\Temp\01 - Cristal.wav

Pre-gap length 0:00:02.00

Peak level 98.8 %
Track quality 99.9 %
Test CRC 461CB882
Copy CRC 461CB882
Copy OK

Track 2
Filename D:\Temp\02 - Chega De Saudade.wav

Peak level 78.5 %
Track quality 99.9 %
Test CRC 092FD1B8
Copy CRC 092FD1B8
Copy OK

Track 3
Filename D:\Temp\03 - A Lenda Do Caboclo.wav

Peak level 75.5 %
Track quality 100.0 %
Test CRC 8C4E8DDA
Copy CRC 8C4E8DDA
Copy OK

Track 4
Filename D:\Temp\04 - Doce De Coco.wav

Peak level 84.8 %
Track quality 99.9 %
Test CRC C8C9CA19
Copy CRC C8C9CA19
Copy OK

Track 5
Filename D:\Temp\05 - Dansa Brasileira.wav

Peak level 98.8 %
Track quality 100.0 %
Test CRC B0BA863C
Copy CRC B0BA863C
Copy OK

Track 6
Filename D:\Temp\06 - Apelo.wav

Peak level 98.8 %
Track quality 100.0 %
Test CRC E8093B80
Copy CRC E8093B80
Copy OK

Track 7
Filename D:\Temp\07 - Dansa Negra.wav

Peak level 87.7 %
Track quality 100.0 %
Test CRC 69DD5F8E
Copy CRC 69DD5F8E
Copy OK

Track 8
Filename D:\Temp\08 - 1 X 0 (Um A Zero).wav

Peak level 86.6 %
Track quality 100.0 %
Test CRC 8991D630
Copy CRC 8991D630
Copy OK

Track 9
Filename D:\Temp\09 - Menino.wav

Peak level 74.5 %
Track quality 100.0 %
Test CRC 63AF18AD
Copy CRC 63AF18AD
Copy OK

Track 10
Filename D:\Temp\10 - Samambaia.wav

Peak level 98.8 %
Track quality 100.0 %
Test CRC F9C1435C
Copy CRC F9C1435C
Copy OK

Track 11
Filename D:\Temp\11 - Carinhoso.wav

Peak level 59.2 %
Track quality 100.0 %
Test CRC 8AE0D5EE
Copy CRC 8AE0D5EE
Copy OK

Track 12
Filename D:\Temp\12 - Alma Brasileira.wav

Peak level 98.8 %
Track quality 100.0 %
Test CRC 9B6BB249
Copy CRC 9B6BB249
Copy OK

Track 13
Filename D:\Temp\13 - O Amor Em Paz.wav

Peak level 90.3 %
Track quality 99.9 %
Test CRC A789531F
Copy CRC A789531F
Copy OK

Track 14
Filename D:\Temp\14 - Bodas De Prata & Quatro Cantos.wav

Peak level 76.2 %
Track quality 100.0 %
Test CRC 3874B823
Copy CRC 3874B823
Copy OK

Track 15
Filename D:\Temp\15 - Brasileirinho.wav

Peak level 98.8 %
Track quality 100.0 %
Test CRC 57FCF6AE
Copy CRC 57FCF6AE
Copy OK

Track 16
Filename D:\Temp\16 - Salvador.wav

Peak level 66.6 %
Track quality 100.0 %
Test CRC 12ACD0B3
Copy CRC 12ACD0B3
Copy OK

No errors occured


End of status report


Download
HF 1 | HF 2 | HF 3

RS 1 | RS 2 | RS 3

Password: amusic

My blog >