Subcategories

Yo-Yo Ma - Yo-Yo Ma Plays Bach (2017) {Sony Classical 88985345442}

Posted By: ruskaval
Yo-Yo Ma - Yo-Yo Ma Plays Bach (2017) {Sony Classical 88985345442}

Yo-Yo Ma - Yo-Yo Ma Plays Bach (2017) {Sony Classical 88985345442}
EAC rip (secure mode) | FLAC (tracks)+CUE+LOG -> 373 Mb | MP3 @320 -> 187 Mb
Full Artwork @ 300 dpi (png) -> 105 Mb | 5% repair rar
© 2017 Sony Classical / Sony Music | 88985345442
Classical / Baroque / Chamber Music / Cello

CBS/Sony Classical has been accompanying superstar cellist Yo-Yo Ma for decades on his journey through the unsurpassed works written for his instrument by Johann Sebastian Bach. The label is now pleased to announce the release of important landmarks from that journey, Yo-Yo Ma Plays Bach, on a single CD. Ma's first recording of Bach's six Solo Suites, which went on to win the Grammy® for "Best Classical Instrumental Performance" and is represented here by the Sarabande from the Sixth Suite, took place in 1982. In the same year, Yo-Yo Ma recorded Bach's complete sonatas for viola da gamba with harpsichordist Kenneth Cooper which was hailed by Gramophone as "intelligent and expressive."

Yo-Yo Ma's explorations of Bach have also taken him far beyond his instrument's core repertoire to some highly enterprising collaborations with the Baroque specialist Ton Koopman. Inspired by Bach's own practice of recycling his music, the renowned Dutch conductor-organist transcribed a selection of Bach works for solo cello and chamber ensemble, and in 1998 Sony recorded these pieces with Ma playing a Baroque cello, alongside Koopman and musicians from his Amsterdam Baroque Orchestra playing period instruments.

Finally, as an encore, the album offers the Fancy on Bach Air created for Yo-Yo Ma by John Corigliano and recorded by the cellist in 1999. The American composer based this rhapsodic seven-minute piece on the Prelude from Bach's Cello Suite No. 1. Wrote ClassicsToday.com, "The music not only sings but also speaks through Yo-Yo Ma s generous cello mastery."
Yo-Yo Ma - Yo-Yo Ma Plays Bach (2017) {Sony Classical 88985345442}


Musicians:
Yo-Yo Ma (cello, baroque cello)
Amsterdam Baroque Orchestra
Ton Koopman
(conductor, organ & harpsichord)
Kenneth Cooper (harpsichord)
Kathryn Stott (piano #17)
Bobby McFerrin (vocals #19)

tracklist:
01 - Johann Sebastian Bach - Suite for Solo Cello No. 3 in C major - I. Prelude
02 - Johann Sebastian Bach - Suite for Solo Cello No. 3 in C major - II. Allemande
03 - Johann Sebastian Bach - Suite for Solo Cello No. 3 in C major - III. Courante
04 - Johann Sebastian Bach - Suite for Solo Cello No. 3 in C major - IV. Sarabande
05 - Johann Sebastian Bach - Suite for Solo Cello No. 3 in C major - V. Bouree I & Bouree II
06 - Johann Sebastian Bach - Suite for Solo Cello No. 3 in C major - VI. Gigue
07 - Johann Sebastian Bach - Erbarme dich, mein Gott Aria from St. Matthew Passion
08 - Johann Sebastian Bach - Air from Orchestral Suite No. 3 in D major
09 - Johann Sebastian Bach - Jesus bleibet meine Freude
10 - Johann Sebastian Bach - Sonata for Viola da gamba (Cello) and Harpsichord No. 1 in G major - I. Adagio
11 - Johann Sebastian Bach - Sonata for Viola da gamba (Cello) and Harpsichord No. 1 in G major - II. Allegro ma non tanto
12 - Johann Sebastian Bach - Sonata for Viola da gamba (Cello) and Harpsichord No. 1 in G major - III. Andante
13 - Johann Sebastian Bach - Sonata for Viola da gamba (Cello) and Harpsichord No. 1 in G major - IV. Allegro moderato
14 - Johann Sebastian Bach - Wachet auf, ruft uns dei Stimme BWV 445
15 - Johann Sebastian Bach - Aria from Goldberg Variations, BWV 988
16 - Johann Sebastian Bach - Schafe konnen sicher weiden
17 - Johann Sebastian Bach - Ave Maria
18 - Johann Sebastian Bach - Sarabande from Suite for Solo Cello No. 6 in D major BWV 1012
19 - Johann Sebastian Bach - Air from Orchestral Suite No. 3 in D major BWV 1068
20 - John Corigliano - Fancy on a Bach Air

Exact Audio Copy V1.3 from 2. September 2016

EAC extraction logfile from 10. October 2017, 20:53

Yo-Yo Ma / Yo-Yo Ma plays Bach

Used drive : ASUS DRW-24B1ST j Adapter: 1 ID: 0

Read mode : Secure
Utilize accurate stream : Yes
Defeat audio cache : Yes
Make use of C2 pointers : No

Read offset correction : 6
Overread into Lead-In and Lead-Out : No
Fill up missing offset samples with silence : Yes
Delete leading and trailing silent blocks : No
Null samples used in CRC calculations : Yes
Used interface : Native Win32 interface for Win NT & 2000
Gap handling : Appended to previous track

Used output format : User Defined Encoder
Selected bitrate : 128 kBit/s
Quality : High
Add ID3 tag : No
Command line compressor : C:\Program Files (x86)\Exact Audio Copy\Flac\flac.exe
Additional command line options : -8 -V -T "ARTIST=%artist%" -T "TITLE=%title%" -T "ALBUM=%albumtitle%" -T "DATE=%year%" -T "TRACKNUMBER=%tracknr%" -T "TOTALTRACKS=%numtracks%" -T "GENRE=%genre%" -T "ALBUMARTIST=%albumartist%" -T "ALBUM ARTIST=%albumartist%" -T "COMMENT=EAC Secure Mode, Test & Copy, AccurateRip, FLAC -8" %source%


TOC of the extracted CD

Track | Start | Length | Start sector | End sector
––––––––––––––––––––––––––––-
1 | 0:00.00 | 3:18.64 | 0 | 14913
2 | 3:18.64 | 3:35.35 | 14914 | 31073
3 | 6:54.24 | 3:00.50 | 31074 | 44623
4 | 9:54.74 | 4:45.72 | 44624 | 66070
5 | 14:40.71 | 3:19.41 | 66071 | 81036
6 | 18:00.37 | 3:03.67 | 81037 | 94828
7 | 21:04.29 | 7:24.26 | 94829 | 128154
8 | 28:28.55 | 5:06.36 | 128155 | 151140
9 | 33:35.16 | 2:48.34 | 151141 | 163774
10 | 36:23.50 | 3:51.07 | 163775 | 181106
11 | 40:14.57 | 3:17.43 | 181107 | 195924
12 | 43:32.25 | 2:59.45 | 195925 | 209394
13 | 46:31.70 | 3:03.22 | 209395 | 223141
14 | 49:35.17 | 3:52.09 | 223142 | 240550
15 | 53:27.26 | 4:44.40 | 240551 | 261890
16 | 58:11.66 | 3:42.11 | 261891 | 278551
17 | 61:54.02 | 2:45.21 | 278552 | 290947
18 | 64:39.23 | 4:33.26 | 290948 | 311448
19 | 69:12.49 | 5:14.32 | 311449 | 335030
20 | 74:27.06 | 6:58.05 | 335031 | 366385


Track 1

Filename D:\_Post\Bach_ma\01 - Johann Sebastian Bach - Suite for Solo Cello No. 3 in C major - I. Prelude.wav

Pre-gap length 0:00:02.00

Peak level 96.2 %
Extraction speed 4.5 X
Track quality 99.9 %
Test CRC FE0A529C
Copy CRC FE0A529C
Accurately ripped (confidence 4) [23722B31] (AR v2)
Copy OK

Track 2

Filename D:\_Post\Bach_ma\02 - Johann Sebastian Bach - Suite for Solo Cello No. 3 in C major - II. Allemande.wav

Peak level 86.3 %
Extraction speed 4.9 X
Track quality 99.9 %
Test CRC 4887C5CB
Copy CRC 4887C5CB
Accurately ripped (confidence 4) [FCCE1A70] (AR v2)
Copy OK

Track 3

Filename D:\_Post\Bach_ma\03 - Johann Sebastian Bach - Suite for Solo Cello No. 3 in C major - III. Courante.wav

Peak level 71.7 %
Extraction speed 6.2 X
Track quality 100.0 %
Test CRC 95DEB997
Copy CRC 95DEB997
Accurately ripped (confidence 4) [60CA84E5] (AR v2)
Copy OK

Track 4

Filename D:\_Post\Bach_ma\04 - Johann Sebastian Bach - Suite for Solo Cello No. 3 in C major - IV. Sarabande.wav

Peak level 64.4 %
Extraction speed 7.0 X
Track quality 100.0 %
Test CRC 9FF5F324
Copy CRC 9FF5F324
Accurately ripped (confidence 4) [407B0B4B] (AR v2)
Copy OK

Track 5

Filename D:\_Post\Bach_ma\05 - Johann Sebastian Bach - Suite for Solo Cello No. 3 in C major - V. Bouree I & Bouree II.wav

Peak level 59.7 %
Extraction speed 5.8 X
Track quality 99.9 %
Test CRC D0DDAA65
Copy CRC D0DDAA65
Accurately ripped (confidence 4) [939503E2] (AR v2)
Copy OK

Track 6

Filename D:\_Post\Bach_ma\06 - Johann Sebastian Bach - Suite for Solo Cello No. 3 in C major - VI. Gigue.wav

Peak level 97.4 %
Extraction speed 5.8 X
Track quality 99.9 %
Test CRC 9F1E1649
Copy CRC 9F1E1649
Accurately ripped (confidence 4) [2DD822BB] (AR v2)
Copy OK

Track 7

Filename D:\_Post\Bach_ma\07 - Johann Sebastian Bach - Erbarme dich, mein Gott Aria from St. Matthew Passion.wav

Pre-gap length 0:00:05.00

Peak level 70.5 %
Extraction speed 8.5 X
Track quality 100.0 %
Test CRC 970A9D72
Copy CRC 970A9D72
Accurately ripped (confidence 4) [65EFC6D0] (AR v2)
Copy OK

Track 8

Filename D:\_Post\Bach_ma\08 - Johann Sebastian Bach - Air from Orchestral Suite No. 3 in D major.wav

Pre-gap length 0:00:04.00

Peak level 57.3 %
Extraction speed 8.8 X
Track quality 100.0 %
Test CRC 4D5E565E
Copy CRC 4D5E565E
Accurately ripped (confidence 4) [38236EA9] (AR v2)
Copy OK

Track 9

Filename D:\_Post\Bach_ma\09 - Johann Sebastian Bach - Jesus bleibet meine Freude.wav

Pre-gap length 0:00:04.00

Peak level 57.4 %
Extraction speed 8.2 X
Track quality 100.0 %
Test CRC CF6B0661
Copy CRC CF6B0661
Accurately ripped (confidence 4) [6E72B428] (AR v2)
Copy OK

Track 10

Filename D:\_Post\Bach_ma\10 - Johann Sebastian Bach - Sonata for Viola da gamba (Cello) and Harpsichord No. 1 in G major - I. Adagio.wav

Pre-gap length 0:00:05.00

Peak level 51.8 %
Extraction speed 7.4 X
Track quality 99.9 %
Test CRC EECA841C
Copy CRC EECA841C
Accurately ripped (confidence 4) [59A7CCF5] (AR v2)
Copy OK

Track 11

Filename D:\_Post\Bach_ma\11 - Johann Sebastian Bach - Sonata for Viola da gamba (Cello) and Harpsichord No. 1 in G major - II. Allegro ma non tanto.wav

Peak level 70.6 %
Extraction speed 9.1 X
Track quality 100.0 %
Test CRC 1FB914E1
Copy CRC 1FB914E1
Accurately ripped (confidence 4) [0DD8C9BB] (AR v2)
Copy OK

Track 12

Filename D:\_Post\Bach_ma\12 - Johann Sebastian Bach - Sonata for Viola da gamba (Cello) and Harpsichord No. 1 in G major - III. Andante.wav

Peak level 28.9 %
Extraction speed 7.4 X
Track quality 99.9 %
Test CRC 4B710DC9
Copy CRC 4B710DC9
Accurately ripped (confidence 4) [7AC0A66F] (AR v2)
Copy OK

Track 13

Filename D:\_Post\Bach_ma\13 - Johann Sebastian Bach - Sonata for Viola da gamba (Cello) and Harpsichord No. 1 in G major - IV. Allegro moderato.wav

Peak level 63.8 %
Extraction speed 9.3 X
Track quality 100.0 %
Test CRC 3A24B300
Copy CRC 3A24B300
Accurately ripped (confidence 4) [32DB97B9] (AR v2)
Copy OK

Track 14

Filename D:\_Post\Bach_ma\14 - Johann Sebastian Bach - Wachet auf, ruft uns dei Stimme BWV 445.wav

Pre-gap length 0:00:05.00

Peak level 59.4 %
Extraction speed 9.9 X
Track quality 100.0 %
Test CRC A2FBC100
Copy CRC A2FBC100
Accurately ripped (confidence 4) [CA8076D2] (AR v2)
Copy OK

Track 15

Filename D:\_Post\Bach_ma\15 - Johann Sebastian Bach - Aria from Goldberg Variations, BWV 988.wav

Pre-gap length 0:00:04.00

Peak level 37.7 %
Extraction speed 8.8 X
Track quality 99.9 %
Test CRC BDAF3BCE
Copy CRC BDAF3BCE
Accurately ripped (confidence 4) [72E6674A] (AR v2)
Copy OK

Track 16

Filename D:\_Post\Bach_ma\16 - Johann Sebastian Bach - Schafe konnen sicher weiden.wav

Pre-gap length 0:00:04.00

Peak level 54.8 %
Extraction speed 10.5 X
Track quality 100.0 %
Test CRC 1152C039
Copy CRC 1152C039
Accurately ripped (confidence 4) [A835AD07] (AR v2)
Copy OK

Track 17

Filename D:\_Post\Bach_ma\17 - Johann Sebastian Bach - Ave Maria.wav

Pre-gap length 0:00:04.00

Peak level 39.7 %
Extraction speed 10.2 X
Track quality 100.0 %
Test CRC 436EB3AC
Copy CRC 436EB3AC
Accurately ripped (confidence 4) [F31F64AD] (AR v2)
Copy OK

Track 18

Filename D:\_Post\Bach_ma\18 - Johann Sebastian Bach - Sarabande from Suite for Solo Cello No. 6 in D major BWV 1012.wav

Pre-gap length 0:00:04.00

Peak level 73.0 %
Extraction speed 11.0 X
Track quality 100.0 %
Test CRC 328614FF
Copy CRC 328614FF
Accurately ripped (confidence 4) [34DF67F7] (AR v2)
Copy OK

Track 19

Filename D:\_Post\Bach_ma\19 - Johann Sebastian Bach - Air from Orchestral Suite No. 3 in D major BWV 1068.wav

Pre-gap length 0:00:04.00

Peak level 44.2 %
Extraction speed 11.5 X
Track quality 100.0 %
Test CRC 30EB8CD3
Copy CRC 30EB8CD3
Accurately ripped (confidence 4) [3C0D3381] (AR v2)
Copy OK

Track 20

Filename D:\_Post\Bach_ma\20 - John Corigliano - Fancy on a Bach Air.wav

Pre-gap length 0:00:04.00

Peak level 54.1 %
Extraction speed 12.2 X
Track quality 100.0 %
Test CRC 0C5F84EC
Copy CRC 0C5F84EC
Accurately ripped (confidence 4) [55135DAE] (AR v2)
Copy OK


All tracks accurately ripped

No errors occurred

End of status report

–– CUETools DB Plugin V2.1.6

[CTDB TOCID: lexbf8jXYreV3D0jqHrvnNmOtSI-] found
Submit result: lexbf8jXYreV3D0jqHrvnNmOtSI- has been confirmed
Track | CTDB Status
1 | (12/12) Accurately ripped
2 | (12/12) Accurately ripped
3 | (12/12) Accurately ripped
4 | (12/12) Accurately ripped
5 | (12/12) Accurately ripped
6 | (12/12) Accurately ripped
7 | (12/12) Accurately ripped
8 | (12/12) Accurately ripped
9 | (12/12) Accurately ripped
10 | (12/12) Accurately ripped
11 | (12/12) Accurately ripped
12 | (12/12) Accurately ripped
13 | (12/12) Accurately ripped
14 | (12/12) Accurately ripped
15 | (12/12) Accurately ripped
16 | (12/12) Accurately ripped
17 | (12/12) Accurately ripped
18 | (12/12) Accurately ripped
19 | (12/12) Accurately ripped
20 | (12/12) Accurately ripped


==== Log checksum BCA02B78305D4F2869FA50B9407D23D0F3057AD87D8E933A18F17872C4C4A9C4 ====


Yo-Yo Ma - Yo-Yo Ma Plays Bach (2017) {Sony Classical 88985345442}

Yo-Yo Ma - Yo-Yo Ma Plays Bach (2017) {Sony Classical 88985345442}



===