Subcategories

Yuja Wang - Sonatas & Etudes: Chopin, Ligeti, Scriabin, Liszt (2009) Re-Up

Posted By: SuniR
Yuja Wang - Sonatas & Etudes: Chopin, Ligeti, Scriabin, Liszt (2009) Re-Up

Yuja Wang - Sonatas & Etudes: Chopin, Ligeti, Scriabin, Liszt (2009)
EAC | FLAC (log,tracks+cue) -> 253 Mb (5% Rec.)
Mp3 CBR320 Kbps -> 178 Mb (5% Rec.) | Scans -> 47 Mb
Classical, Piano | Label: Deutsche Grammophon, B0012534-02 | 01:14:16

Gifted Chinese pianist Yuja Wang debuts on DG’s roster with an album featuring compositions by Chopin, Ligeti, Liszt, and Scriabin. Yuja Wang chooses pieces that, in her judgment, are refreshingly atypical of the customary musical perspectives of these composers. Exceptional artistry, technical perfection, and a rare ability to evoke an uncommonly vivid palette of rich colors from the instrument characterize Yuja Wang’s pianism.

Tracklist:

Chopin: Piano Sonata No.2 In B Flat Minor, Op.35
01. 1. Grave - Doppio movimento 07:50
02. 2. Scherzo - Piu lento - Tempo I 06:49
03. 3. Marche funebre (Lento) 08:25
04. 4. Finale (Presto) 01:28

05. Ligeti: 6 etudes pour piano, premier livre - Etude n 4-Fanfares 03:40

Scriabin: Piano Sonata No.2, In G Sharp Minor Op.19 "Sonata Fantasy"
06. 1. Andante 08:18
07. 2. Presto 04:02

08. Ligeti: Etude No.10 "Der Zauberlehring" 02:15

Liszt: Piano Sonata In B Minor, S.178 - Edited By Alfred Cortot
09. Lento assai - Allegro energico - Grandioso-Recitativo 12:24
10. Andante sostenuto 07:45
11. Allegro energico - Andante sostenuto - Lento assai 11:05

Yuja Wang - Piano
Frederic Chopin, Gyorgy Ligeti, Alexander Scriabin, Gyorgy Ligeti, Franz Liszt - Composers

Recording: Hamburg-Harburg, Friedrich-Ebert-Halle, 11/2008


Exact Audio Copy V1.0 beta 3 from 29. August 2011

EAC extraction logfile from 25. October 2012, 16:44

Yuja Wang / Sonatas & Etudes

Used drive : TSSTcorpCDDVDW SH-222BB Adapter: 0 ID: 0

Read mode : Secure
Utilize accurate stream : Yes
Defeat audio cache : Yes
Make use of C2 pointers : No

Read offset correction : 6
Overread into Lead-In and Lead-Out : No
Fill up missing offset samples with silence : Yes
Delete leading and trailing silent blocks : No
Null samples used in CRC calculations : Yes
Used interface : Installed external ASPI interface
Gap handling : Appended to previous track

Used output format : User Defined Encoder
Selected bitrate : 768 kBit/s
Quality : High
Add ID3 tag : No
Command line compressor : C:\Program Files (x86)\Exact Audio Copy\FLAC\FLAC.EXE
Additional command line options : -8 -V -T "ARTIST=%artist%" -T "TITLE=%title%" -T "ALBUM=%albumtitle%" -T "DATE=%year%" -T "TRACKNUMBER=%tracknr%" -T "GENRE=%genre%" -T "PERFORMER=%albuminterpret%" -T "COMPOSER=%composer%" %haslyrics%–tag-from-file=LYRICS="%lyricsfile%"%haslyrics% -T "ALBUMARTIST=%albumartist%" -T "DISCNUMBER=%cdnumber%" -T "TOTALDISCS=%totalcds%" -T "TOTALTRACKS=%numtracks%" -T "COMMENT=%comment%" %source% -o %dest%


TOC of the extracted CD

Track | Start | Length | Start sector | End sector
––––––––––––––––––––––––––––-
1 | 0:00.00 | 7:50.08 | 0 | 35257
2 | 7:50.08 | 6:48.69 | 35258 | 65926
3 | 14:39.02 | 8:25.07 | 65927 | 103808
4 | 23:04.09 | 1:37.43 | 103809 | 111126
5 | 24:41.52 | 3:42.62 | 111127 | 127838
6 | 28:24.39 | 8:18.16 | 127839 | 165204
7 | 36:42.55 | 4:03.12 | 165205 | 183441
8 | 40:45.67 | 2:17.17 | 183442 | 193733
9 | 43:03.09 | 12:23.48 | 193734 | 249506
10 | 55:26.57 | 7:44.38 | 249507 | 284344
11 | 63:11.20 | 11:04.28 | 284345 | 334172


Track 1

Filename D:\EAC\Yuja Wang - Sonatas & Etudes - 2009\01 Chopin- Piano Sonata no.2 in B-flat minor, op.35 - 1. Grave - Doppio movimento.wav

Pre-gap length 0:00:02.00

Peak level 76.6 %
Extraction speed 4.7 X
Track quality 99.9 %
Test CRC 8784AE85
Copy CRC 8784AE85
Accurately ripped (confidence 24) [74131AD1] (AR v2)
Copy OK

Track 2

Filename D:\EAC\Yuja Wang - Sonatas & Etudes - 2009\02 Chopin- Piano Sonata no.2 in B-flat minor, op.35 - 2. Scherzo.wav

Peak level 71.6 %
Extraction speed 6.0 X
Track quality 100.0 %
Test CRC 6B5B101E
Copy CRC 6B5B101E
Accurately ripped (confidence 24) [70EBE088] (AR v2)
Copy OK

Track 3

Filename D:\EAC\Yuja Wang - Sonatas & Etudes - 2009\03 Chopin- Piano Sonata no.2 in B-flat minor, op.35 - 3. Marche funèbre. Lento.wav

Peak level 63.5 %
Extraction speed 6.8 X
Track quality 100.0 %
Test CRC 1131A659
Copy CRC 1131A659
Accurately ripped (confidence 24) [90CE50CA] (AR v2)
Copy OK

Track 4

Filename D:\EAC\Yuja Wang - Sonatas & Etudes - 2009\04 Chopin- Piano Sonata no.2 in B-flat minor, op.35 - 4. Finale. Presto.wav

Peak level 45.5 %
Extraction speed 3.4 X
Track quality 99.8 %
Test CRC 46DA04F8
Copy CRC 46DA04F8
Accurately ripped (confidence 24) [F7E53AB5] (AR v2)
Copy OK

Track 5

Filename D:\EAC\Yuja Wang - Sonatas & Etudes - 2009\05 Ligeti- Etude 4 ''Fanfares''.wav

Pre-gap length 0:00:09.43

Peak level 56.6 %
Extraction speed 6.8 X
Track quality 100.0 %
Test CRC A2BC6D7F
Copy CRC A2BC6D7F
Accurately ripped (confidence 24) [9BF11EFE] (AR v2)
Copy OK

Track 6

Filename D:\EAC\Yuja Wang - Sonatas & Etudes - 2009\06 Scriabin- Piano Sonata no.2 in G-sharp minor, op.19 - 1. Andante.wav

Pre-gap length 0:00:02.26

Peak level 71.6 %
Extraction speed 7.7 X
Track quality 100.0 %
Test CRC 65E1D79D
Copy CRC 65E1D79D
Accurately ripped (confidence 24) [43A348A9] (AR v2)
Copy OK

Track 7

Filename D:\EAC\Yuja Wang - Sonatas & Etudes - 2009\07 Scriabin- Piano Sonata no.2 in G-sharp minor, op.19 - 2. Presto.wav

Peak level 75.0 %
Extraction speed 7.6 X
Track quality 100.0 %
Test CRC 26A03BBB
Copy CRC 26A03BBB
Accurately ripped (confidence 24) [9ADEB469] (AR v2)
Copy OK

Track 8

Filename D:\EAC\Yuja Wang - Sonatas & Etudes - 2009\08 Ligeti- Etude 10 ''The Sorcerer's Apprentice''.wav

Pre-gap length 0:00:01.28

Peak level 66.7 %
Extraction speed 7.0 X
Track quality 100.0 %
Test CRC B5B77939
Copy CRC B5B77939
Accurately ripped (confidence 24) [47D84751] (AR v2)
Copy OK

Track 9

Filename D:\EAC\Yuja Wang - Sonatas & Etudes - 2009\09 Liszt- Piano Sonata in B minor, S178 - 1. Lento - Allegro energico.wav

Pre-gap length 0:00:02.31

Peak level 81.5 %
Extraction speed 9.0 X
Track quality 100.0 %
Test CRC 44176165
Copy CRC 44176165
Accurately ripped (confidence 24) [C061DE86] (AR v2)
Copy OK

Track 10

Filename D:\EAC\Yuja Wang - Sonatas & Etudes - 2009\10 Liszt- Piano Sonata in B minor, S178 - 2. Andante sostenuto.wav

Peak level 84.0 %
Extraction speed 9.3 X
Track quality 100.0 %
Test CRC E19B9AE0
Copy CRC E19B9AE0
Accurately ripped (confidence 24) [E64B25B8] (AR v2)
Copy OK

Track 11

Filename D:\EAC\Yuja Wang - Sonatas & Etudes - 2009\11 Liszt- Piano Sonata in B minor, S178 - 3. Allegro energico.wav

Peak level 96.9 %
Extraction speed 9.0 X
Track quality 99.9 %
Test CRC 14B41589
Copy CRC 14B41589
Accurately ripped (confidence 24) [59D0BB07] (AR v2)
Copy OK


All tracks accurately ripped

No errors occurred

End of status report

–– CUETools DB Plugin V2.1.3

[CTDB TOCID: 7e5gEGceNO98rw0MX0xrhipXQZU-] found, Submit result: 7e5gEGceNO98rw0MX0xrhipXQZU- has been confirmed
[ae9b4f9c] (71/72) Accurately ripped
[9762696f] (01/72) No match


==== Log checksum C4DAA88BDA58800B3E02277B9E307192D3C9BC32F29D58013C04D3FA9147D853 ====

foobar2000 1.3.6 / Dynamic Range Meter 1.1.1
log date: 2017-09-01 20:17:50

––––––––––––––––––––––––––––––––––––––––
Analyzed: Yuja Wang / Sonatas & Etudes
––––––––––––––––––––––––––––––––––––––––

DR Peak RMS Duration Track
––––––––––––––––––––––––––––––––––––––––
DR12 -2.31 dB -19.76 dB 7:50 01-Chopin: Piano Sonata No.2: 1. Grave
DR13 -2.90 dB -22.33 dB 6:49 02-Chopin: Piano Sonata No.2: 2. Scherzo
DR15 -3.93 dB -24.95 dB 8:25 03-Chopin: Piano Sonata No.2: 3. Marche funebre
DR13 -6.83 dB -28.57 dB 1:38 04-Chopin: Piano Sonata No.2: 4. Finale
DR13 -4.93 dB -23.04 dB 3:43 05-Ligeti: Etude 4: Fanfares
DR15 -2.90 dB -24.94 dB 8:18 06-Scriabin: Piano Sonata No.2: 1. Andante
DR13 -2.50 dB -21.24 dB 4:03 07-Scriabin: Piano Sonata No.2: 2. Presto
DR15 -3.52 dB -24.30 dB 2:17 08-Ligeti: Etude 10: The Sorcerer's Apprentice
DR13 -1.77 dB -20.25 dB 12:24 09-Liszt: Piano Sonata in B minor: 1. Lento assai
DR14 -1.51 dB -24.58 dB 7:45 10-Liszt: Piano Sonata in B minor: 2. Andante sostenuto
DR13 -0.27 dB -20.66 dB 11:04 11-Liszt: Piano Sonata in B minor: 3. Allegro energico
––––––––––––––––––––––––––––––––––––––––

Number of tracks: 11
Official DR value: DR14

Samplerate: 44100 Hz
Channels: 2
Bits per sample: 16
Bitrate: 462 kbps
Codec: FLAC
================================================================================

Thanks to the original releaser