Subcategories

Yusef Lateef - Yusef's Mood: Complete 1957 Sessions with Hugh Lawson (1957-58) {4CD Fresh Sound 24bit Remastered rel 2008}

Posted By: ruskaval
Yusef Lateef - Yusef's Mood: Complete 1957 Sessions with Hugh Lawson (1957-58) {4CD Fresh Sound 24bit Remastered rel 2008}

Yusef Lateef - Yusef's Mood: Complete 1957 Sessions with Hugh Lawson (1957-58) {4CD Fresh Sound 24bit Remastered rel 2008}
EAC rip (secure mode) | FLAC (tracks)+CUE+LOG -> 1.00 Gb | MP3 @320 -> 646 Mb
Full Artwork @ 300 dpi (png) -> 241 Mb | 5% repair rar
© 1957, 2008 Fresh Sound Records | FSR-CD 492
Jazz / Hard Bop / Saxophone / Flute / Post Bebop / World Fusion

4CD Set, 32 page booklet. Digitally Remastered 24-Bit / 96 kHz. In 1950, after a year on tour with Dizzy Gillespies band, Yusef Lateef returned to Detroit, the city where he had grown up as a jazz musician. With his powerfully preaching tenor sax tone and fluent, driving style he established himself as an influential presence in the Motor City scene, forming his own quintet in 1955. He made his first recordings as a leader in 1957, a productive year for him, as this gripping 4-CD set reveals.

On it he plays tenor and flute with a compelling directness and overpowering honesty, surrounded by a nucleus of Detroiters like Curtis Fuller, Ernie Farrow, Louis Hayes, Oliver Jackson, Wilbur Harden and, especially, Hugh Lawson, whose rolling, two-handed piano is as exciting in solo as it is in his intelligent comping. The entire group plays in inspired fashion, speaking authoritatively for the Detroit jazz scene.
Yusef Lateef - Yusef's Mood: Complete 1957 Sessions with Hugh Lawson (1957-58) {4CD Fresh Sound 24bit Remastered rel 2008}

Yusef Lateef - Yusef's Mood: Complete 1957 Sessions with Hugh Lawson (1957-58) {4CD Fresh Sound 24bit Remastered rel 2008}

This collection includes the following albums:
"Stable Mates" (Savoy MG 12115)
"Jazz for the Thinker" (Savoy MG 12109)
"Jazz Mood" (Savoy MG 12103)
"Before Dawn" (Verve MG V8217)
"Jazz and the Sounds of Nature" (Savoy MG 12120)
"Prayer to the East" (Savoy MG 12117)
"Jazz is Busting Out All Over" (Savoy MG 12123)
"The Sounds of Yusef" (Prestige P 7122)
"Other SOunds" (New Jazz NJ 8218)
"Cry! Tender" (New Jazz NJ 8234)
Yusef Lateef - Yusef's Mood: Complete 1957 Sessions with Hugh Lawson (1957-58) {4CD Fresh Sound 24bit Remastered rel 2008}

Yusef Lateef - Yusef's Mood: Complete 1957 Sessions with Hugh Lawson (1957-58) {4CD Fresh Sound 24bit Remastered rel 2008}


AllMusic INFO

Personnel:
Yusef Lateef (tenor sax, flute, vocals, assorted instruments), Curtis Fuller (trombone, tambourine, Turkish finger cymbals), Wilbur Harden (flugelhorn, tambourine), Hugh Lawson (piano, metalphone, ocarina), Ernie Farrow (bass, rebob), Louis Hayes (drums, cow bells), Oliver Jackson (drums, chinese gong).

Original recordings produced by Ozzie Cadena (Savoy), Norman Granz (Verve) and Bob Weinstock (Prestige & New Jazz).
Compiled and produced for CD release by Jordi Pujol


tracklist:
CD 1

01. Beauregard (Lateef) 3:36
02. OBlues (Lateef) 9:12
03. Happyology (Lateef) 11:16
04. Midday (Lateef) 7:54
05. Polarity (Lateef) 7:05
06. Ameena (Lateef) 7:09
07. Space (Lateef) 5:54
08. Metaphor (Lateef) 8:07
09. Morning (Lateef) 10:36
10. The Beginning (Lateef) 4:10

Yusef Lateef - Yusef's Mood: Complete 1957 Sessions with Hugh Lawson (1957-58) {4CD Fresh Sound 24bit Remastered rel 2008}


CD 2
01. G. Bouk (Lateef) 10:16
02. Blues In Space (Lateef) 7:06
03. Yusef's Mood (Lateef) 8:34
04. Passion (Lateef) 4:06
05. Love Is Eternal (Lateef) 6:32
06. Pikes Peak (Lateef) 5:32
07. Open Strings (Lateef) 6:16
08. Before Dawn (Lateef) 5:28
09. Twenty Five Minute Blues (Lateef) 5:29
10. Chang Chang Chang (Lateef) 2:59
11. Constellation (Parker) 4:49
12. Seulb (Harden) 6:14
13. Sounds Of Nature (Lateef) 3:47

Yusef Lateef - Yusef's Mood: Complete 1957 Sessions with Hugh Lawson (1957-58) {4CD Fresh Sound 24bit Remastered rel 2008}


CD 3
01. Song Of Delilah (Young-Livingstone-Evans) 8:22
02. 8540 Twelfth Street (Lateef) 4:25
03. I Got It Bad And That Ain't Good (Ellington) 6:20
04. Check Blues (Lateef) 6:40
05. Prayer To The East (Jackson) 8:18
06. A Night In Tunisia (Gillespie-Paparelli) 9:50
07. Lover Man (Davis-Ramirez-Sherman) 6:38
08. Endura (Lateef) 13:08
09. Love Dance (Baxter) 6:45
10. Sram (Harden) 5:37
11. Gypsy Arab (Harden) 3:26

Yusef Lateef - Yusef's Mood: Complete 1957 Sessions with Hugh Lawson (1957-58) {4CD Fresh Sound 24bit Remastered rel 2008}


CD 4
01. Playful Flute (Harden) 4:18
02. Taboo (Lecuona) 9:10
03. Ecaps (Lateef) 6:34
04. All Alone (Berlin) 5:06
05. Anastasia (Newman) 4:13
06. Love And Humour (Lateef) 6:13
07. Buckingham (Lateef) 5:10
08. Lamberts Point (Harden) 4:44
09. Meditation (Lateef) 4:43
10. Mahaba (Lateef) 3:50
11. Minor Mood (Lateef) 9:37
12. Take The 'A' Train (Strayhorn) 11:13

Yusef Lateef - Yusef's Mood: Complete 1957 Sessions with Hugh Lawson (1957-58) {4CD Fresh Sound 24bit Remastered rel 2008}


Total time: 05:06:07 minutes.
The hardcore of these sessions were recorded by Rudy Van Gelder in Hackensack, New Jersey


Exact Audio Copy V1.0 beta 1 from 15. November 2010

EAC extraction logfile from 9. January 2012, 18:09

Yusef Lateef / Complete 1957 Sessions with Hugh Lawson vol.1

Used drive : HL-DT-STDVD-ROM GDR8161B Adapter: 0 ID: 1

Read mode : Secure
Utilize accurate stream : Yes
Defeat audio cache : Yes
Make use of C2 pointers : No

Read offset correction : 102
Overread into Lead-In and Lead-Out : No
Fill up missing offset samples with silence : Yes
Delete leading and trailing silent blocks : No
Null samples used in CRC calculations : Yes
Used interface : Native Win32 interface for Win NT & 2000
Gap handling : Appended to previous track

Used output format : User Defined Encoder
Selected bitrate : 768 kBit/s
Quality : High
Add ID3 tag : No
Command line compressor : C:\Program Files (x86)\Exact Audio Copy\FLAC\FLAC.EXE
Additional command line options : -8 -V -T "ARTIST=%a" -T "TITLE=%t" -T "ALBUM=%g" -T "DATE=%y" -T "TRACKNUMBER=%n" -T "TOTALTRACKS=%x" -T "GENRE=%m" -T "ALBUMARTIST=%v" -T "ALBUM ARTIST=%v" -T "COMMENT=EAC Secure Mode, Test & Copy, AccurateRip, FLAC -8" %s


TOC of the extracted CD

Track | Start | Length | Start sector | End sector
––––––––––––––––––––––––––––-
1 | 0:00.00 | 3:35.41 | 0 | 16165
2 | 3:35.41 | 9:11.52 | 16166 | 57542
3 | 12:47.18 | 11:15.53 | 57543 | 108220
4 | 24:02.71 | 7:54.05 | 108221 | 143775
5 | 31:57.01 | 7:05.19 | 143776 | 175669
6 | 39:02.20 | 7:08.64 | 175670 | 207833
7 | 46:11.09 | 5:53.74 | 207834 | 234382
8 | 52:05.08 | 8:06.63 | 234383 | 270895
9 | 60:11.71 | 10:36.28 | 270896 | 318623
10 | 70:48.24 | 4:10.16 | 318624 | 337389


Track 1

Filename D:\0_UPL\Yusef Lateef - Complete 1957 Sessions with Hugh Lawson\CD1of4\01 - Beauregard.wav

Pre-gap length 0:00:02.00

Peak level 85.8 %
Extraction speed 3.9 X
Track quality 100.0 %
Test CRC 275BD63A
Copy CRC 275BD63A
Track not present in AccurateRip database
Copy OK

Track 2

Filename D:\0_UPL\Yusef Lateef - Complete 1957 Sessions with Hugh Lawson\CD1of4\02 - O'Blues.wav

Pre-gap length 0:00:01.58

Peak level 84.2 %
Extraction speed 4.9 X
Track quality 100.0 %
Test CRC 568FF4FA
Copy CRC 568FF4FA
Track not present in AccurateRip database
Copy OK

Track 3

Filename D:\0_UPL\Yusef Lateef - Complete 1957 Sessions with Hugh Lawson\CD1of4\03 - Happyology.wav

Pre-gap length 0:00:01.58

Peak level 91.0 %
Extraction speed 5.8 X
Track quality 100.0 %
Test CRC C64BB97C
Copy CRC C64BB97C
Track not present in AccurateRip database
Copy OK

Track 4

Filename D:\0_UPL\Yusef Lateef - Complete 1957 Sessions with Hugh Lawson\CD1of4\04 - Midday.wav

Pre-gap length 0:00:01.58

Peak level 79.8 %
Extraction speed 6.4 X
Track quality 100.0 %
Test CRC D4BFB6C0
Copy CRC D4BFB6C0
Track not present in AccurateRip database
Copy OK

Track 5

Filename D:\0_UPL\Yusef Lateef - Complete 1957 Sessions with Hugh Lawson\CD1of4\05 - Polarity.wav

Pre-gap length 0:00:01.58

Peak level 79.3 %
Extraction speed 6.8 X
Track quality 100.0 %
Test CRC B9B00FEE
Copy CRC B9B00FEE
Track not present in AccurateRip database
Copy OK

Track 6

Filename D:\0_UPL\Yusef Lateef - Complete 1957 Sessions with Hugh Lawson\CD1of4\06 - Ameena.wav

Pre-gap length 0:00:01.58

Peak level 78.1 %
Extraction speed 7.2 X
Track quality 100.0 %
Test CRC FE546D04
Copy CRC FE546D04
Track not present in AccurateRip database
Copy OK

Track 7

Filename D:\0_UPL\Yusef Lateef - Complete 1957 Sessions with Hugh Lawson\CD1of4\07 - Space.wav

Pre-gap length 0:00:01.58

Peak level 95.8 %
Extraction speed 6.8 X
Track quality 99.9 %
Test CRC E06DFE28
Copy CRC E06DFE28
Track not present in AccurateRip database
Copy OK

Track 8

Filename D:\0_UPL\Yusef Lateef - Complete 1957 Sessions with Hugh Lawson\CD1of4\08 - Metaphor.wav

Pre-gap length 0:00:01.58

Peak level 100.0 %
Extraction speed 7.9 X
Track quality 100.0 %
Test CRC A22CFF05
Copy CRC A22CFF05
Track not present in AccurateRip database
Copy OK

Track 9

Filename D:\0_UPL\Yusef Lateef - Complete 1957 Sessions with Hugh Lawson\CD1of4\09 - Morning.wav

Pre-gap length 0:00:01.58

Peak level 99.0 %
Extraction speed 3.5 X
Track quality 99.8 %
Test CRC 959A1F0C
Copy CRC 959A1F0C
Track not present in AccurateRip database
Copy OK

Track 10

Filename D:\0_UPL\Yusef Lateef - Complete 1957 Sessions with Hugh Lawson\CD1of4\10 - The Beginning.wav

Pre-gap length 0:00:01.58

Peak level 74.6 %
Extraction speed 0.8 X
Track quality 99.2 %
Test CRC AC583250
Copy CRC AC583250
Track not present in AccurateRip database
Copy OK


None of the tracks are present in the AccurateRip database

No errors occurred

End of status report

==== Log checksum 3250660534A5BCB65C74B19F02FA8341FF9FF07803DB5FA8B1C9ABEB89F77431 ====

Exact Audio Copy V1.0 beta 1 from 15. November 2010

EAC extraction logfile from 9. January 2012, 18:45

Yusef Lateef / Complete 1957 Sessions with Hugh Lawson vol.1 CD2

Used drive : HL-DT-STDVD-ROM GDR8161B Adapter: 0 ID: 1

Read mode : Secure
Utilize accurate stream : Yes
Defeat audio cache : Yes
Make use of C2 pointers : No

Read offset correction : 102
Overread into Lead-In and Lead-Out : No
Fill up missing offset samples with silence : Yes
Delete leading and trailing silent blocks : No
Null samples used in CRC calculations : Yes
Used interface : Native Win32 interface for Win NT & 2000
Gap handling : Appended to previous track

Used output format : User Defined Encoder
Selected bitrate : 768 kBit/s
Quality : High
Add ID3 tag : No
Command line compressor : C:\Program Files (x86)\Exact Audio Copy\FLAC\FLAC.EXE
Additional command line options : -8 -V -T "ARTIST=%a" -T "TITLE=%t" -T "ALBUM=%g" -T "DATE=%y" -T "TRACKNUMBER=%n" -T "TOTALTRACKS=%x" -T "GENRE=%m" -T "ALBUMARTIST=%v" -T "ALBUM ARTIST=%v" -T "COMMENT=EAC Secure Mode, Test & Copy, AccurateRip, FLAC -8" %s


TOC of the extracted CD

Track | Start | Length | Start sector | End sector
––––––––––––––––––––––––––––-
1 | 0:00.00 | 10:15.43 | 0 | 46167
2 | 10:15.43 | 7:05.45 | 46168 | 78087
3 | 17:21.13 | 8:34.30 | 78088 | 116667
4 | 25:55.43 | 4:05.48 | 116668 | 135090
5 | 30:01.16 | 6:32.02 | 135091 | 164492
6 | 36:33.18 | 5:32.27 | 164493 | 189419
7 | 42:05.45 | 6:15.66 | 189420 | 217610
8 | 48:21.36 | 5:27.42 | 217611 | 242177
9 | 53:49.03 | 5:29.05 | 242178 | 266857
10 | 59:18.08 | 2:59.15 | 266858 | 280297
11 | 62:17.23 | 4:49.07 | 280298 | 301979
12 | 67:06.30 | 6:13.52 | 301980 | 330006
13 | 73:20.07 | 3:47.36 | 330007 | 347067


Track 1

Filename D:\0_UPL\Yusef Lateef - Complete 1957 Sessions with Hugh Lawson\CD2of4\01 - G. Bouk.wav

Pre-gap length 0:00:02.00

Peak level 100.0 %
Extraction speed 4.6 X
Track quality 100.0 %
Test CRC 73CA4FFB
Copy CRC 73CA4FFB
Track not present in AccurateRip database
Copy OK

Track 2

Filename D:\0_UPL\Yusef Lateef - Complete 1957 Sessions with Hugh Lawson\CD2of4\02 - Blues in Space.wav

Pre-gap length 0:00:01.58

Peak level 82.1 %
Extraction speed 5.3 X
Track quality 100.0 %
Test CRC D2B45223
Copy CRC D2B45223
Track not present in AccurateRip database
Copy OK

Track 3

Filename D:\0_UPL\Yusef Lateef - Complete 1957 Sessions with Hugh Lawson\CD2of4\03 - Yusef's Mood.wav

Pre-gap length 0:00:01.58

Peak level 93.4 %
Extraction speed 5.9 X
Track quality 100.0 %
Test CRC 384CCD5B
Copy CRC 384CCD5B
Track not present in AccurateRip database
Copy OK

Track 4

Filename D:\0_UPL\Yusef Lateef - Complete 1957 Sessions with Hugh Lawson\CD2of4\04 - Passion.wav

Pre-gap length 0:00:01.58

Peak level 84.5 %
Extraction speed 5.9 X
Track quality 100.0 %
Test CRC DDBC9C29
Copy CRC DDBC9C29
Track not present in AccurateRip database
Copy OK

Track 5

Filename D:\0_UPL\Yusef Lateef - Complete 1957 Sessions with Hugh Lawson\CD2of4\05 - Love is Eternal.wav

Pre-gap length 0:00:01.58

Peak level 73.6 %
Extraction speed 6.5 X
Track quality 100.0 %
Test CRC 84C63730
Copy CRC 84C63730
Track not present in AccurateRip database
Copy OK

Track 6

Filename D:\0_UPL\Yusef Lateef - Complete 1957 Sessions with Hugh Lawson\CD2of4\06 - Pike's Peak.wav

Pre-gap length 0:00:01.58

Peak level 91.0 %
Extraction speed 6.8 X
Track quality 100.0 %
Test CRC 64DD15A3
Copy CRC 64DD15A3
Track not present in AccurateRip database
Copy OK

Track 7

Filename D:\0_UPL\Yusef Lateef - Complete 1957 Sessions with Hugh Lawson\CD2of4\07 - Open Strings.wav

Pre-gap length 0:00:01.58

Peak level 84.5 %
Extraction speed 6.6 X
Track quality 99.9 %
Test CRC E0238FC7
Copy CRC E0238FC7
Track not present in AccurateRip database
Copy OK

Track 8

Filename D:\0_UPL\Yusef Lateef - Complete 1957 Sessions with Hugh Lawson\CD2of4\08 - Before Down.wav

Pre-gap length 0:00:01.58

Peak level 94.9 %
Extraction speed 7.4 X
Track quality 100.0 %
Test CRC EB3164CB
Copy CRC EB3164CB
Track not present in AccurateRip database
Copy OK

Track 9

Filename D:\0_UPL\Yusef Lateef - Complete 1957 Sessions with Hugh Lawson\CD2of4\09 - Twenty Five Minute Blues.wav

Pre-gap length 0:00:01.58

Peak level 88.9 %
Extraction speed 6.9 X
Track quality 99.9 %
Test CRC C969D17C
Copy CRC C969D17C
Track not present in AccurateRip database
Copy OK

Track 10

Filename D:\0_UPL\Yusef Lateef - Complete 1957 Sessions with Hugh Lawson\CD2of4\10 - Chang Chang Chang.wav

Pre-gap length 0:00:01.58

Peak level 86.4 %
Extraction speed 7.2 X
Track quality 100.0 %
Test CRC 4BC5500A
Copy CRC 4BC5500A
Track not present in AccurateRip database
Copy OK

Track 11

Filename D:\0_UPL\Yusef Lateef - Complete 1957 Sessions with Hugh Lawson\CD2of4\11 - Constellation.wav

Pre-gap length 0:00:01.58

Peak level 93.5 %
Extraction speed 7.9 X
Track quality 100.0 %
Test CRC B0B77219
Copy CRC B0B77219
Track not present in AccurateRip database
Copy OK

Track 12

Filename D:\0_UPL\Yusef Lateef - Complete 1957 Sessions with Hugh Lawson\CD2of4\12 - Seulb.wav

Pre-gap length 0:00:01.58

Peak level 87.0 %
Extraction speed 8.3 X
Track quality 100.0 %
Test CRC 025FFB2D
Copy CRC 025FFB2D
Track not present in AccurateRip database
Copy OK

Track 13

Filename D:\0_UPL\Yusef Lateef - Complete 1957 Sessions with Hugh Lawson\CD2of4\13 - Sounds of Nature.wav

Pre-gap length 0:00:01.58

Peak level 82.8 %
Extraction speed 7.0 X
Track quality 99.9 %
Test CRC 15BE3B5F
Copy CRC 15BE3B5F
Track not present in AccurateRip database
Copy OK


None of the tracks are present in the AccurateRip database

No errors occurred

End of status report

==== Log checksum C2B89E1A0DC9D0CFD17EB4FD6CD8B977F87B2587B88F68DC1EBB4C41F781045F ====

Exact Audio Copy V1.0 beta 1 from 15. November 2010

EAC extraction logfile from 9. January 2012, 19:13

Yusef Lateef / Yusef's Mood: Complete 1957 Sessions with Hugh Lawson vol.2 CD1

Used drive : HL-DT-STDVD-ROM GDR8161B Adapter: 0 ID: 1

Read mode : Secure
Utilize accurate stream : Yes
Defeat audio cache : Yes
Make use of C2 pointers : No

Read offset correction : 102
Overread into Lead-In and Lead-Out : No
Fill up missing offset samples with silence : Yes
Delete leading and trailing silent blocks : No
Null samples used in CRC calculations : Yes
Used interface : Native Win32 interface for Win NT & 2000
Gap handling : Appended to previous track

Used output format : User Defined Encoder
Selected bitrate : 768 kBit/s
Quality : High
Add ID3 tag : No
Command line compressor : C:\Program Files (x86)\Exact Audio Copy\FLAC\FLAC.EXE
Additional command line options : -8 -V -T "ARTIST=%a" -T "TITLE=%t" -T "ALBUM=%g" -T "DATE=%y" -T "TRACKNUMBER=%n" -T "TOTALTRACKS=%x" -T "GENRE=%m" -T "ALBUMARTIST=%v" -T "ALBUM ARTIST=%v" -T "COMMENT=EAC Secure Mode, Test & Copy, AccurateRip, FLAC -8" %s


TOC of the extracted CD

Track | Start | Length | Start sector | End sector
––––––––––––––––––––––––––––-
1 | 0:00.00 | 8:21.46 | 0 | 37620
2 | 8:21.46 | 4:25.36 | 37621 | 57531
3 | 12:47.07 | 6:19.42 | 57532 | 85998
4 | 19:06.49 | 6:40.20 | 85999 | 116018
5 | 25:46.69 | 8:17.40 | 116019 | 153333
6 | 34:04.34 | 9:49.71 | 153334 | 197579
7 | 43:54.30 | 6:38.05 | 197580 | 227434
8 | 50:32.35 | 13:08.37 | 227435 | 286571
9 | 63:40.72 | 6:44.50 | 286572 | 316921
10 | 70:25.47 | 5:37.13 | 316922 | 342209
11 | 76:02.60 | 3:26.24 | 342210 | 357683


Track 1

Filename D:\0_UPL\Yusef Lateef - Complete 1957 Sessions with Hugh Lawson\CD3of4\01 - Song of Delilah.wav

Pre-gap length 0:00:02.00

Peak level 93.9 %
Extraction speed 5.6 X
Track quality 100.0 %
Test CRC E4FA91A7
Copy CRC E4FA91A7
Track not present in AccurateRip database
Copy OK

Track 2

Filename D:\0_UPL\Yusef Lateef - Complete 1957 Sessions with Hugh Lawson\CD3of4\02 - 8540 Twelfth Street.wav

Pre-gap length 0:00:01.58

Peak level 100.0 %
Extraction speed 5.9 X
Track quality 100.0 %
Test CRC 8C93F479
Copy CRC 8C93F479
Track not present in AccurateRip database
Copy OK

Track 3

Filename D:\0_UPL\Yusef Lateef - Complete 1957 Sessions with Hugh Lawson\CD3of4\03 - I Got It Bad And That Ain't Good.wav

Pre-gap length 0:00:01.58

Peak level 76.7 %
Extraction speed 6.0 X
Track quality 99.9 %
Test CRC 622408C3
Copy CRC 622408C3
Track not present in AccurateRip database
Copy OK

Track 4

Filename D:\0_UPL\Yusef Lateef - Complete 1957 Sessions with Hugh Lawson\CD3of4\04 - Check Blues.wav

Pre-gap length 0:00:01.58

Peak level 100.0 %
Extraction speed 7.3 X
Track quality 100.0 %
Test CRC 689EBCE0
Copy CRC 689EBCE0
Track not present in AccurateRip database
Copy OK

Track 5

Filename D:\0_UPL\Yusef Lateef - Complete 1957 Sessions with Hugh Lawson\CD3of4\05 - Prayer to the East.wav

Pre-gap length 0:00:01.58

Peak level 100.0 %
Extraction speed 8.0 X
Track quality 100.0 %
Test CRC 85B66ED5
Copy CRC 85B66ED5
Track not present in AccurateRip database
Copy OK

Track 6

Filename D:\0_UPL\Yusef Lateef - Complete 1957 Sessions with Hugh Lawson\CD3of4\06 - A Night in Tunisia.wav

Pre-gap length 0:00:01.58

Peak level 100.0 %
Extraction speed 8.8 X
Track quality 100.0 %
Test CRC 87D1E988
Copy CRC 87D1E988
Track not present in AccurateRip database
Copy OK

Track 7

Filename D:\0_UPL\Yusef Lateef - Complete 1957 Sessions with Hugh Lawson\CD3of4\07 - Lover Man.wav

Pre-gap length 0:00:01.58

Peak level 100.0 %
Extraction speed 9.1 X
Track quality 100.0 %
Test CRC 6A200962
Copy CRC 6A200962
Track not present in AccurateRip database
Copy OK

Track 8

Filename D:\0_UPL\Yusef Lateef - Complete 1957 Sessions with Hugh Lawson\CD3of4\08 - Endura.wav

Pre-gap length 0:00:01.58

Peak level 100.0 %
Extraction speed 10.1 X
Track quality 100.0 %
Test CRC E080427E
Copy CRC E080427E
Track not present in AccurateRip database
Copy OK

Track 9

Filename D:\0_UPL\Yusef Lateef - Complete 1957 Sessions with Hugh Lawson\CD3of4\09 - Love Dance.wav

Pre-gap length 0:00:01.58

Peak level 93.6 %
Extraction speed 10.3 X
Track quality 100.0 %
Test CRC 02804116
Copy CRC 02804116
Track not present in AccurateRip database
Copy OK

Track 10

Filename D:\0_UPL\Yusef Lateef - Complete 1957 Sessions with Hugh Lawson\CD3of4\10 - Sram.wav

Pre-gap length 0:00:01.58

Peak level 96.8 %
Extraction speed 10.4 X
Track quality 100.0 %
Test CRC 82FD081A
Copy CRC 82FD081A
Track not present in AccurateRip database
Copy OK

Track 11

Filename D:\0_UPL\Yusef Lateef - Complete 1957 Sessions with Hugh Lawson\CD3of4\11 - Gypsy Arab.wav

Pre-gap length 0:00:01.58

Peak level 96.2 %
Extraction speed 9.8 X
Track quality 100.0 %
Test CRC 2EA3DD36
Copy CRC 2EA3DD36
Track not present in AccurateRip database
Copy OK


None of the tracks are present in the AccurateRip database

No errors occurred

End of status report

==== Log checksum 53F53035C03BF5F35A785FACD64DC30BD534834EB5A02BA42F92993FD1CB86BB ====

Exact Audio Copy V1.0 beta 1 from 15. November 2010

EAC extraction logfile from 9. January 2012, 19:42

Yusef Lateef / Yusef's Mood: Complete 1957 Sessions with Hugh Lawson vol.2 CD2

Used drive : HL-DT-STDVD-ROM GDR8161B Adapter: 0 ID: 1

Read mode : Secure
Utilize accurate stream : Yes
Defeat audio cache : Yes
Make use of C2 pointers : No

Read offset correction : 102
Overread into Lead-In and Lead-Out : No
Fill up missing offset samples with silence : Yes
Delete leading and trailing silent blocks : No
Null samples used in CRC calculations : Yes
Used interface : Native Win32 interface for Win NT & 2000
Gap handling : Appended to previous track

Used output format : User Defined Encoder
Selected bitrate : 768 kBit/s
Quality : High
Add ID3 tag : No
Command line compressor : C:\Program Files (x86)\Exact Audio Copy\FLAC\FLAC.EXE
Additional command line options : -8 -V -T "ARTIST=%a" -T "TITLE=%t" -T "ALBUM=%g" -T "DATE=%y" -T "TRACKNUMBER=%n" -T "TOTALTRACKS=%x" -T "GENRE=%m" -T "ALBUMARTIST=%v" -T "ALBUM ARTIST=%v" -T "COMMENT=EAC Secure Mode, Test & Copy, AccurateRip, FLAC -8" %s


TOC of the extracted CD

Track | Start | Length | Start sector | End sector
––––––––––––––––––––––––––––-
1 | 0:00.00 | 4:18.30 | 0 | 19379
2 | 4:18.30 | 9:10.00 | 19380 | 60629
3 | 13:28.30 | 6:34.33 | 60630 | 90212
4 | 20:02.63 | 5:06.29 | 90213 | 113191
5 | 25:09.17 | 4:13.23 | 113192 | 132189
6 | 29:22.40 | 6:13.24 | 132190 | 160188
7 | 35:35.64 | 5:09.66 | 160189 | 183429
8 | 40:45.55 | 4:44.15 | 183430 | 204744
9 | 45:29.70 | 4:42.58 | 204745 | 225952
10 | 50:12.53 | 3:49.38 | 225953 | 243165
11 | 54:02.16 | 9:37.33 | 243166 | 286473
12 | 63:39.49 | 11:13.33 | 286474 | 336981


Track 1

Filename D:\0_UPL\Yusef Lateef - Complete 1957 Sessions with Hugh Lawson\CD4of4\01 - Playful Flute.wav

Pre-gap length 0:00:02.00

Peak level 57.5 %
Extraction speed 5.0 X
Track quality 100.0 %
Test CRC DF7B05B7
Copy CRC DF7B05B7
Track not present in AccurateRip database
Copy OK

Track 2

Filename D:\0_UPL\Yusef Lateef - Complete 1957 Sessions with Hugh Lawson\CD4of4\02 - Taboo.wav

Peak level 51.5 %
Extraction speed 6.2 X
Track quality 100.0 %
Test CRC 946DC0A9
Copy CRC 946DC0A9
Track not present in AccurateRip database
Copy OK

Track 3

Filename D:\0_UPL\Yusef Lateef - Complete 1957 Sessions with Hugh Lawson\CD4of4\03 - Ecaps.wav

Peak level 80.2 %
Extraction speed 6.9 X
Track quality 100.0 %
Test CRC 86BE8E3D
Copy CRC 86BE8E3D
Track not present in AccurateRip database
Copy OK

Track 4

Filename D:\0_UPL\Yusef Lateef - Complete 1957 Sessions with Hugh Lawson\CD4of4\04 - All Alone.wav

Peak level 96.3 %
Extraction speed 7.3 X
Track quality 100.0 %
Test CRC 2708CF91
Copy CRC 2708CF91
Track not present in AccurateRip database
Copy OK

Track 5

Filename D:\0_UPL\Yusef Lateef - Complete 1957 Sessions with Hugh Lawson\CD4of4\05 - Anastasia.wav

Peak level 58.3 %
Extraction speed 7.4 X
Track quality 100.0 %
Test CRC D80547AF
Copy CRC D80547AF
Track not present in AccurateRip database
Copy OK

Track 6

Filename D:\0_UPL\Yusef Lateef - Complete 1957 Sessions with Hugh Lawson\CD4of4\06 - Love and Humour.wav

Peak level 100.0 %
Extraction speed 8.2 X
Track quality 100.0 %
Test CRC 21F9111B
Copy CRC 21F9111B
Track not present in AccurateRip database
Copy OK

Track 7

Filename D:\0_UPL\Yusef Lateef - Complete 1957 Sessions with Hugh Lawson\CD4of4\07 - Buckingham.wav

Peak level 85.1 %
Extraction speed 8.4 X
Track quality 100.0 %
Test CRC 8EC2E373
Copy CRC 8EC2E373
Track not present in AccurateRip database
Copy OK

Track 8

Filename D:\0_UPL\Yusef Lateef - Complete 1957 Sessions with Hugh Lawson\CD4of4\08 - Lambert's Point.wav

Peak level 63.1 %
Extraction speed 8.7 X
Track quality 100.0 %
Test CRC D415C437
Copy CRC D415C437
Track not present in AccurateRip database
Copy OK

Track 9

Filename D:\0_UPL\Yusef Lateef - Complete 1957 Sessions with Hugh Lawson\CD4of4\09 - Meditation.wav

Peak level 76.4 %
Extraction speed 8.9 X
Track quality 100.0 %
Test CRC 5903D077
Copy CRC 5903D077
Track not present in AccurateRip database
Copy OK

Track 10

Filename D:\0_UPL\Yusef Lateef - Complete 1957 Sessions with Hugh Lawson\CD4of4\10 - Mahaba.wav

Peak level 56.9 %
Extraction speed 8.9 X
Track quality 100.0 %
Test CRC 5092233C
Copy CRC 5092233C
Track not present in AccurateRip database
Copy OK

Track 11

Filename D:\0_UPL\Yusef Lateef - Complete 1957 Sessions with Hugh Lawson\CD4of4\11 - Minor Mood.wav

Peak level 67.1 %
Extraction speed 9.5 X
Track quality 99.9 %
Test CRC AAEB30DE
Copy CRC AAEB30DE
Track not present in AccurateRip database
Copy OK

Track 12

Filename D:\0_UPL\Yusef Lateef - Complete 1957 Sessions with Hugh Lawson\CD4of4\12 - Take the A Train.wav

Peak level 81.0 %
Extraction speed 10.0 X
Track quality 99.9 %
Test CRC 2FC7EB08
Copy CRC 2FC7EB08
Track not present in AccurateRip database
Copy OK


None of the tracks are present in the AccurateRip database

No errors occurred

End of status report

==== Log checksum A6752EFAE2BEFBF8D240F649D2DA338DB0F5D44CFBD92FA08B38DD489BDE08A1 ====


Yusef Lateef - Yusef's Mood: Complete 1957 Sessions with Hugh Lawson (1957-58) {4CD Fresh Sound 24bit Remastered rel 2008}


All thanks goes to the original releaser!