Subcategories

Zakir Hussain - Rough Guide To Zakir Hussain (2018)

Posted By: aasana
Zakir Hussain - Rough Guide To Zakir Hussain (2018)

Zakir Hussain - Rough Guide To Zakir Hussain (2018)
EAC Rip | FLAC (tracks+.cue+.log) | 1:09:38 | 334 MB
World, Ethnic, Indian Classical | Label: Rough Guides/World Music Network

The world’s best loved tabla player, Zakir Hussain, has transformed the instrument with his exquisite virtuosity and irresistible charm. With a lifetime of musical wit and wisdom, he celebrates the art of communicating in rhythm.

When experimental US composer, Conlon Nancarrow wrote his studies for the self-playing player piano or pianola, he deliberately composed beyond the capabilities of human performance. With electronic or digital drums or digital percussion, technology and programming created new possibilities and turned many into slaves to the algorithm. With what tabla maestro Zakir Hussain achieves, all it takes is two hands, tuned percussion and a lifetime of ferocious musical wit and invention. He brings new dimensions of eloquence and muscularity to talking in rhythm.

When compiling this selection of soliloquies, colloquies and magic, Ken Hunt chose performances revealing varying sides of Zakir Hussain’s music, personality and virtuosity. They show this foremost master of Indian rhythmicality revitalising and renewing the art of rhythm accompaniment in the roles of soloist, duettist and ensemble player. Bookending the anthology, Tabla Taal – Char Taal ki Sawari and Punjabi Dhamar – Teental (Drut) feature bols rhythm syllable recitation, in which reciting the composition is followed by duplicating its notes on tabla.

Deliberately Zakir Hussain is shown in good, glad and grand company. On raga Kirwani he is in tandem with Pandit Shivkumar Sharma, the musician who raised the santoor – a modified Kashmiri folk instrument – to the global concert stage. On raga Gara he accompanies the outstanding sitar maestro Ustad Vilayat Khan. On Tabla Taal – Ek Taal he and his father, Alla Rakha reveal themselves as fire-breathing dragons as they inexorably transport listeners to the piece’s delicious finale and resolution. By contrast, inverting the usual percussion and melody instrument role, on Punjabi Dhamar – Teental (Drut) the sarangi visionary Ustad Sultan Khan takes the supportive lehara or lehra role to Zakir Hussain’s exceptional front-man role. That last performance brings this party back to its roots and the Punjab gharana (school or style) of tabla playing which grounded his father with an exciting Punjabi rhythmical composition.

It is no exaggeration to say Zakir Hussain is most famous and consummate Indo-Pakistani rhythmist chameleon ever. (And ever is a big word.) For him, tabla was yet another language to learn and master. ‘When I’m playing tabla and teaching tabla and talking to the students, I’m trying to tell them to think of it as a language. To think of it the same as Hindi or English, Punjabi or Urdu or Farsi. And to try to imagine that, when you’re playing, you’re not playing rhythms and not just playing patterns. You’re composing a sentence. You are writing an essay or forming a paragraph. You’re telling a story in that language and speaking in that way. Or singing a song in that story or reciting a poem in that story in that language.’

Listen to this collection like an anthology of stories. He has tales, some tall tales to tell.

Tracklist:
01. Zakir Hussain - Tabla Taal - Char Taal Ki Sawari
02. Zakir Hussain - Kirwani
03. Zakir Hussain - Gara
04. Zakir Hussain & Allah Rakha - Ek Taal (Live)
05. Zakir Hussain - Punjabi Dhamar - Teental (Drut) Mishra Ghara

Exact Audio Copy V1.3 from 2. September 2016

EAC extraction logfile from 15. June 2019, 15:47

Zakir Hussain / The Rough Guide To Zakir Hussain

Used drive : ASUS DRW-24B1ST j Adapter: 2 ID: 0

Read mode : Secure
Utilize accurate stream : Yes
Defeat audio cache : Yes
Make use of C2 pointers : No

Read offset correction : 6
Overread into Lead-In and Lead-Out : No
Fill up missing offset samples with silence : Yes
Delete leading and trailing silent blocks : No
Null samples used in CRC calculations : Yes
Used interface : Installed external ASPI interface
Gap handling : Appended to previous track

Used output format : User Defined Encoder
Selected bitrate : 896 kBit/s
Quality : High
Add ID3 tag : No
Command line compressor : C:\Program Files\Exact Audio Copy\Flac\flac.exe
Additional command line options : -8 -V -T "ARTIST=%artist%" -T "TITLE=%title%" -T "ALBUM=%albumtitle%" -T "DATE=%year%" -T "TRACKNUMBER=%tracknr%" -T "GENRE=%genre%" -T "PERFORMER=%albuminterpret%" -T "COMPOSER=%composer%" %haslyrics%–tag-from-file=LYRICS="%lyricsfile%"%haslyrics% -T "ALBUMARTIST=%albumartist%" -T "DISCNUMBER=%cdnumber%" -T "TOTALDISCS=%totalcds%" -T "TOTALTRACKS=%numtracks%" -T "COMMENT=%comment%" %source% -o %dest%


TOC of the extracted CD

Track | Start | Length | Start sector | End sector
––––––––––––––––––––––––––––-
1 | 0:00.00 | 10:32.65 | 0 | 47464
2 | 10:32.65 | 16:58.19 | 47465 | 123833
3 | 27:31.09 | 10:48.30 | 123834 | 172463
4 | 38:19.39 | 7:32.10 | 172464 | 206373
5 | 45:51.49 | 23:47.22 | 206374 | 313420


Track 1

Filename C:\EAC Rips\Zakir Hussain - The Rough Guide To Zakir Hussain (2018) [FLAC]\01 - Tabla Taal – Char Taal Ki Sawari.wav

Pre-gap length 0:00:02.00

Peak level 100.0 %
Extraction speed 6.0 X
Track quality 100.0 %
Test CRC 933567E6
Copy CRC 933567E6
Accurately ripped (confidence 1) [F00A18CB] (AR v2)
Copy OK

Track 2

Filename C:\EAC Rips\Zakir Hussain - The Rough Guide To Zakir Hussain (2018) [FLAC]\02 - Kirwani (Feat. Shivkumar Sharma).wav

Pre-gap length 0:00:02.00

Peak level 96.7 %
Extraction speed 7.5 X
Track quality 99.9 %
Test CRC 94D98D2E
Copy CRC 94D98D2E
Accurately ripped (confidence 1) [B005B30B] (AR v2)
Copy OK

Track 3

Filename C:\EAC Rips\Zakir Hussain - The Rough Guide To Zakir Hussain (2018) [FLAC]\03 - Gara.wav

Pre-gap length 0:00:02.00

Peak level 96.7 %
Extraction speed 8.5 X
Track quality 99.9 %
Test CRC 776A42C9
Copy CRC 776A42C9
Accurately ripped (confidence 1) [701D49C8] (AR v2)
Copy OK

Track 4

Filename C:\EAC Rips\Zakir Hussain - The Rough Guide To Zakir Hussain (2018) [FLAC]\04 - Tabla Taal – Ek Taal (Feat. Alla Rakha).wav

Pre-gap length 0:00:02.00

Peak level 100.0 %
Extraction speed 8.8 X
Track quality 99.9 %
Test CRC C673C2E4
Copy CRC C673C2E4
Accurately ripped (confidence 1) [919FC0BA] (AR v2)
Copy OK

Track 5

Filename C:\EAC Rips\Zakir Hussain - The Rough Guide To Zakir Hussain (2018) [FLAC]\05 - Punjabi Dhamar – Teental (drut) Mishra Ghara.wav

Pre-gap length 0:00:02.00

Peak level 96.7 %
Extraction speed 10.9 X
Track quality 99.9 %
Test CRC FAF16343
Copy CRC FAF16343
Accurately ripped (confidence 1) [35E1CCAC] (AR v2)
Copy OK


All tracks accurately ripped

No errors occurred

End of status report

==== Log checksum ABC244FB67A39A5D8C2FC8073D5C79C175CEF1452B68AFA40DD585866715CAC7 ====