Featured TV Shows


1969 S01E05

Posted By: Tavaz
720p (HD) / WEBRip IMDb
1969 S01E05

1969 S01E05
WEBRip | MKV | 1280x720 | English | H264 @ 3360 kbps | AAC @ 54 kbps | 40 min 56 s | 992 MiB
Genre: Documentary


The six-part series features gripping first-hand accounts of how the year's events came together at the same dizzying, chaotic time.

2d3f7d5cad7542568c86fdbd7426f0be.mkv (991.8 MB)



General
Unique ID : 98611483732798184917262652286812996797 (0x4A2FE185298AED38106601739922C4BD)
Complete name : ./2d3f7d5cad7542568c86fdbd7426f0be.mkv
Format : Matroska
Format version : Version 4 / Version 2
File size : 992 MiB
Duration : 40 min 56 s
Overall bit rate : 3 387 kb/s
Encoded date : UTC 2019-05-22 09:24:30
Writing application : mkvmerge v29.0.0 ('Like It Or Not') 64-bit
Writing library : libebml v1.3.6 + libmatroska v1.4.9

Video
ID : 1
Format : AVC
Format/Info : Advanced Video Codec
Format profile : High@L3.1
Format settings : CABAC / 2 Ref Frames
Format settings, CABAC : Yes
Format settings, RefFrames : 2 frames
Codec ID : V_MPEG4/ISO/AVC
Duration : 40 min 56 s
Bit rate : 3 360 kb/s
Width : 1 280 pixels
Height : 720 pixels
Display aspect ratio : 16:9
Frame rate mode : Constant
Frame rate : 29.970 FPS
Color space : YUV
Chroma subsampling : 4:2:0
Bit depth : 8 bits
Scan type : Progressive
Bits/(Pixel*Frame) : 0.122
Stream size : 975 MiB (98%)
Writing library : x264 core 148 r2579M 73ae2d1
Encoding settings : cabac=1 / ref=2 / deblock=1:0:0 / analyse=0x3:0x113 / me=hex / subme=2 / psy=1 / psy_rd=1.00:0.00 / mixed_ref=0 / me_range=16 / chroma_me=1 / trellis=0 / 8x8dct=1 / cqm=0 / deadzone=21,11 / fast_pskip=1 / chroma_qp_offset=0 / threads=4 / lookahead_threads=1 / sliced_threads=0 / nr=250 / decimate=1 / interlaced=0 / bluray_compat=0 / stitchable=1 / constrained_intra=0 / bframes=0 / weightp=1 / keyint=250 / keyint_min=25 / scenecut=40 / intra_refresh=0 / rc_lookahead=10 / rc=2pass / mbtree=1 / bitrate=3360 / ratetol=1.0 / qcomp=0.60 / qpmin=5 / qpmax=69 / qpstep=4 / cplxblur=20.0 / qblur=0.5 / ip_ratio=1.40 / aq=1:1.00
Default : Yes
Forced : No

Audio
ID : 2
Format : AAC
Format/Info : Advanced Audio Codec
Format profile : HE-AAC / LC
Format settings : Implicit
Codec ID : A_AAC-2
Duration : 40 min 56 s
Bit rate : 54.6 kb/s
Channel(s) : 1 channel
Channel positions : Front: C
Sampling rate : 48.0 kHz / 24.0 kHz
Frame rate : 23.438 FPS (1024 SPF)
Compression mode : Lossy
Stream size : 16.0 MiB (2%)
Default : Yes
Forced : No





1969 S01E05


1969 S01E05


1969 S01E05


1969 S01E05


1969 S01E05

All episodes