Featured TV Shows


1969 S01E06

Posted By: Tavaz
720p (HD) / WEBRip IMDb
1969 S01E06

1969 S01E06
WEBRip | MKV | 1280x720 | English | H264 @ 3360 kbps | AAC @ 54 kbps | 40 min 56 s | 987 MiB
Genre: Documentary


The six-part series features gripping first-hand accounts of how the year's events came together at the same dizzying, chaotic time.

d8c96841178b42de8f99b88db6fbcfc3.mkv (986.9 MB)



General
Unique ID : 2303294775134710009988960406280445168 (0x1BB9933388A1E189426941861899CF0)
Complete name : ./d8c96841178b42de8f99b88db6fbcfc3.mkv
Format : Matroska
Format version : Version 4 / Version 2
File size : 987 MiB
Duration : 40 min 56 s
Overall bit rate : 3 369 kb/s
Encoded date : UTC 2019-05-29 10:03:33
Writing application : mkvmerge v9.8.0 ('Kuglblids') 64bit
Writing library : libebml v1.3.4 + libmatroska v1.4.5

Video
ID : 1
Format : AVC
Format/Info : Advanced Video Codec
Format profile : High@L3.1
Format settings : CABAC / 2 Ref Frames
Format settings, CABAC : Yes
Format settings, RefFrames : 2 frames
Codec ID : V_MPEG4/ISO/AVC
Duration : 40 min 56 s
Bit rate : 3 360 kb/s
Width : 1 280 pixels
Height : 720 pixels
Display aspect ratio : 16:9
Frame rate mode : Variable
Frame rate : 29.826 FPS
Color space : YUV
Chroma subsampling : 4:2:0
Bit depth : 8 bits
Scan type : Progressive
Bits/(Pixel*Frame) : 0.122
Stream size : 970 MiB (98%)
Writing library : x264 core 148 r2579M 73ae2d1
Encoding settings : cabac=1 / ref=2 / deblock=1:0:0 / analyse=0x3:0x113 / me=hex / subme=2 / psy=1 / psy_rd=1.00:0.00 / mixed_ref=0 / me_range=16 / chroma_me=1 / trellis=0 / 8x8dct=1 / cqm=0 / deadzone=21,11 / fast_pskip=1 / chroma_qp_offset=0 / threads=4 / lookahead_threads=1 / sliced_threads=0 / nr=250 / decimate=1 / interlaced=0 / bluray_compat=0 / stitchable=1 / constrained_intra=0 / bframes=0 / weightp=1 / keyint=250 / keyint_min=25 / scenecut=40 / intra_refresh=0 / rc_lookahead=10 / rc=2pass / mbtree=1 / bitrate=3360 / ratetol=1.0 / qcomp=0.60 / qpmin=5 / qpmax=69 / qpstep=4 / cplxblur=20.0 / qblur=0.5 / ip_ratio=1.40 / aq=1:1.00
Language : English
Default : Yes
Forced : Yes
Color range : Limited
Color primaries : BT.709
Transfer characteristics : BT.709
Matrix coefficients : BT.709

Audio
ID : 2
Format : AAC
Format/Info : Advanced Audio Codec
Format profile : HE-AAC / LC
Format settings : Implicit
Codec ID : A_AAC-2
Duration : 40 min 56 s
Bit rate : 54.4 kb/s
Channel(s) : 1 channel
Channel positions : Front: C
Sampling rate : 48.0 kHz / 24.0 kHz
Frame rate : 23.438 FPS (1024 SPF)
Compression mode : Lossy
Stream size : 15.9 MiB (2%)
Language : English
Default : Yes
Forced : Yes





1969 S01E06


1969 S01E06


1969 S01E06


1969 S01E06


1969 S01E06

All episodes