9-1-1 S01E08

Posted By: Tavaz
SD / WEBRip IMDb
9-1-1 S01E08

9-1-1 S01E08
WEBRip | MKV | 1920x1080 | English | H264 @ 11329 kbps | E-AC-3 @ 640 kbps | 45 min 20 s | 3.79 GiB
Subtitles: English
Genre: Drama

Explore the high-pressure experiences of police officers, paramedics and firefighters who are thrust into the most frightening, shocking and heart-stopping situations. These emergency responders must try to balance saving those who are at their most vulnerable with solving the problems in their own lives.

Rename.par2 (62.6 KB)
EN5FjxLhbJKTyYCH85.mkv (3.8 GB)



General
Unique ID : 218062589643543642525797748037577678317 (0xA40D53BDC6D5F06251464D481C691DED)
Complete name : ./EN5FjxLhbJKTyYCH85.mkv
Format : Matroska
Format version : Version 4 / Version 2
File size : 3.79 GiB
Duration : 45 min 20 s
Overall bit rate mode : Variable
Overall bit rate : 12.0 Mb/s
Encoded date : UTC 2018-03-09 18:17:30
Writing application : mkvmerge v21.0.0 ('Tardigrades Will Inherit The Earth') 64-bit
Writing library : libebml v1.3.5 + libmatroska v1.4.8

Video
ID : 1
Format : AVC
Format/Info : Advanced Video Codec
Format profile : High@L4
Format settings : CABAC / 4 Ref Frames
Format settings, CABAC : Yes
Format settings, RefFrames : 4 frames
Codec ID : V_MPEG4/ISO/AVC
Duration : 45 min 20 s
Bit rate mode : Variable
Bit rate : 11.3 Mb/s
Maximum bit rate : 15.0 Mb/s
Width : 1 920 pixels
Height : 1 080 pixels
Display aspect ratio : 16:9
Frame rate mode : Constant
Frame rate : 23.976 (24000/1001) FPS
Color space : YUV
Chroma subsampling : 4:2:0
Bit depth : 8 bits
Scan type : Progressive
Bits/(Pixel*Frame) : 0.228
Stream size : 3.59 GiB (95%)
Default : Yes
Forced : No
Color range : Limited
Color primaries : BT.709
Transfer characteristics : BT.709
Matrix coefficients : BT.709

Audio
ID : 2
Format : E-AC-3
Format/Info : Enhanced Audio Coding 3
Format settings, Endianness : Big
Codec ID : A_EAC3
Duration : 45 min 20 s
Bit rate mode : Constant
Bit rate : 640 kb/s
Channel(s) : 6 channels
Channel positions : Front: L C R, Side: L R, LFE
Sampling rate : 48.0 kHz
Frame rate : 187.500 FPS (256 SPF)
Compression mode : Lossy
Stream size : 208 MiB (5%)
Language : English
Service kind : Complete Main
Default : Yes
Forced : No

Text #1
ID : 3
Format : UTF-8
Codec ID : S_TEXT/UTF8
Codec ID/Info : UTF-8 Plain Text
Duration : 45 min 18 s
Bit rate : 74 b/s
Count of elements : 759
Stream size : 24.8 KiB (0%)
Language : English
Default : No
Forced : No

Text #2
ID : 4
Format : UTF-8
Codec ID : S_TEXT/UTF8
Codec ID/Info : UTF-8 Plain Text
Duration : 45 min 18 s
Bit rate : 82 b/s
Count of elements : 846
Stream size : 27.3 KiB (0%)
Title : SDH
Language : English
Default : No
Forced : No





9-1-1 S01E08


9-1-1 S01E08


9-1-1 S01E08


9-1-1 S01E08


9-1-1 S01E08

All episodes