Featured TV Shows


9-1-1 S02E01

Posted By: Tavaz
SD / HDTV IMDb
9-1-1 S02E01

9-1-1 S02E01
HDTV | MKV | 720x404 | English | H264 @ 1259 kbps | AAC @ 129 kbps | 41 min 50 s | 416 MiB
Subtitles: English
Genre: Drame

Du service d'appels d'urgences 911 aux pompiers, secouristes ou policiers, tous ces intervenants sont constamment sous pression, confrontés quotidiennement à des situations stupéfiantes, effrayantes, et parfois même choquantes. S'ils ont pour mission de voler au secours des personnes en danger, ces héros de l'ombre doivent aussi trouver le temps de résoudre les problèmes de leurs propres vies…

9-1-1.s02e01.hdtv.x264-lucidtv.mkv (352.2 MB)
9-1-1.S02E02.HDTV.x264-LucidTV-Obfuscated.nl.srt (54.6 KB)
9-1-1.s02e01.hdtv.x264-lucidtv.nl.srt (64.9 KB)
9-1-1.S02E02.HDTV.x264-LucidTV-Obfuscated.mkv (416.3 MB)
9-1-1.s02e01.hdtv.x264-lucidtv.srt (63.2 KB)
9-1-1.S02E02.HDTV.x264-LucidTV-Obfuscated.srt (53.2 KB)



General
Unique ID : 143219963646786265487854552729715217557 (0x6BBF2962B0A304B687B2EBBB7D601495)
Complete name : ./9-1-1.S02E02.HDTV.x264-LucidTV-Obfuscated.mkv
Format : Matroska
Format version : Version 4 / Version 2
File size : 416 MiB
Duration : 41 min 50 s
Overall bit rate : 1 391 kb/s
Movie name : 9-1-1.S02E02.HDTV.x264-LucidTV
Encoded date : UTC 2018-09-25 02:38:24
Writing application : mkvmerge v24.0.0 ('Beyond The Pale') 64-bit
Writing library : libebml v1.3.6 + libmatroska v1.4.9

Video
ID : 1
Format : AVC
Format/Info : Advanced Video Codec
Format profile : High@L3.1
Format settings : CABAC / 5 Ref Frames
Format settings, CABAC : Yes
Format settings, RefFrames : 5 frames
Codec ID : V_MPEG4/ISO/AVC
Duration : 41 min 50 s
Bit rate : 1 259 kb/s
Width : 720 pixels
Height : 404 pixels
Display aspect ratio : 16:9
Frame rate mode : Constant
Frame rate : 23.976 (24000/1001) FPS
Color space : YUV
Chroma subsampling : 4:2:0
Bit depth : 8 bits
Scan type : Progressive
Bits/(Pixel*Frame) : 0.181
Stream size : 377 MiB (91%)
Writing library : x264 core 157 r2932 303c484
Encoding settings : cabac=1 / ref=5 / deblock=1:0:0 / analyse=0x3:0x113 / me=hex / subme=8 / psy=1 / psy_rd=1.00:0.00 / mixed_ref=1 / me_range=16 / chroma_me=1 / trellis=2 / 8x8dct=1 / cqm=0 / deadzone=21,11 / fast_pskip=1 / chroma_qp_offset=-2 / threads=13 / lookahead_threads=2 / sliced_threads=0 / nr=0 / decimate=1 / interlaced=0 / bluray_compat=0 / constrained_intra=0 / bframes=3 / b_pyramid=2 / b_adapt=1 / b_bias=0 / direct=3 / weightb=1 / open_gop=0 / weightp=2 / keyint=250 / keyint_min=23 / scenecut=40 / intra_refresh=0 / rc_lookahead=50 / rc=crf / mbtree=1 / crf=19.0 / qcomp=0.60 / qpmin=0 / qpmax=69 / qpstep=4 / ip_ratio=1.40 / aq=1:1.00
Language : English
Default : Yes
Forced : No
Color range : Limited
Matrix coefficients : BT.709

Audio
ID : 2
Format : AAC
Format/Info : Advanced Audio Codec
Format profile : LC
Codec ID : A_AAC-2
Duration : 41 min 50 s
Bit rate : 129 kb/s
Channel(s) : 2 channels
Channel positions : Front: L R
Sampling rate : 48.0 kHz
Frame rate : 46.875 FPS (1024 SPF)
Compression mode : Lossy
Delay relative to video : 20 ms
Stream size : 38.6 MiB (9%)
Language : English
Default : Yes
Forced : No

Text
ID : 3
Format : UTF-8
Codec ID : S_TEXT/UTF8
Codec ID/Info : UTF-8 Plain Text
Duration : 41 min 41 s
Bit rate : 109 b/s
Count of elements : 826
Stream size : 33.5 KiB (0%)
Language : English
Default : No
Forced : No





9-1-1 S02E01


9-1-1 S02E01


9-1-1 S02E01


9-1-1 S02E01


9-1-1 S02E01

All episodes