Adam Ruins Everything S02E18

Posted By: Tavaz
720p (HD) / HDTV IMDb
Adam Ruins Everything S02E18

Adam Ruins Everything S02E18
HDTV | MKV | 1280x720 | English | H264 @ 1873 kbps | AC-3 @ 384 kbps | 24 min 29 s | 396 MiB
Genre: Comedy, Documentary

Host Adam Conover employs a combination of comedy, history and science to dispel widespread misconceptions about everything we take for granted.

08481e6ca52f49808958949918705933.mkv (395.7 MB)



General
Unique ID : 208145348205075978876315543315924540460 (0x9C9755FCD771FCD7B7420823955E5C2C)
Complete name : ./08481e6ca52f49808958949918705933.mkv
Format : Matroska
Format version : Version 4 / Version 2
File size : 396 MiB
Duration : 24 min 29 s
Overall bit rate : 2 259 kb/s
Encoded date : UTC 2018-03-28 03:39:58
Writing application : mkvmerge v9.0.1 ('Obstacles') 64bit
Writing library : libebml v1.3.3 + libmatroska v1.4.4

Video
ID : 1
Format : AVC
Format/Info : Advanced Video Codec
Format profile : High@L3.1
Format settings : CABAC / 4 Ref Frames
Format settings, CABAC : Yes
Format settings, RefFrames : 4 frames
Codec ID : V_MPEG4/ISO/AVC
Duration : 24 min 29 s
Bit rate : 1 873 kb/s
Width : 1 280 pixels
Height : 720 pixels
Display aspect ratio : 16:9
Frame rate mode : Constant
Frame rate : 23.976 (24000/1001) FPS
Color space : YUV
Chroma subsampling : 4:2:0
Bit depth : 8 bits
Scan type : Progressive
Bits/(Pixel*Frame) : 0.085
Stream size : 328 MiB (83%)
Writing library : x264 core 142 r2479 dd79a61
Encoding settings : cabac=1 / ref=3 / deblock=1:0:0 / analyse=0x3:0x113 / me=hex / subme=7 / psy=1 / psy_rd=1.00:0.00 / mixed_ref=1 / me_range=16 / chroma_me=1 / trellis=1 / 8x8dct=1 / cqm=0 / deadzone=21,11 / fast_pskip=1 / chroma_qp_offset=-2 / threads=12 / lookahead_threads=2 / sliced_threads=0 / nr=0 / decimate=1 / interlaced=0 / bluray_compat=0 / constrained_intra=0 / bframes=3 / b_pyramid=2 / b_adapt=1 / b_bias=0 / direct=1 / weightb=1 / open_gop=0 / weightp=2 / keyint=240 / keyint_min=24 / scenecut=40 / intra_refresh=0 / rc_lookahead=40 / rc=crf / mbtree=1 / crf=18.0 / qcomp=0.60 / qpmin=0 / qpmax=69 / qpstep=4 / vbv_maxrate=17500 / vbv_bufsize=17500 / crf_max=0.0 / nal_hrd=none / filler=0 / ip_ratio=1.40 / aq=1:1.00
Default : Yes
Forced : No
Color range : Limited
Color primaries : BT.709
Transfer characteristics : BT.709
Matrix coefficients : BT.709

Audio
ID : 2
Format : AC-3
Format/Info : Audio Coding 3
Format settings, Endianness : Big
Codec ID : A_AC3
Duration : 24 min 29 s
Bit rate mode : Constant
Bit rate : 384 kb/s
Channel(s) : 6 channels
Channel positions : Front: L C R, Side: L R, LFE
Sampling rate : 48.0 kHz
Frame rate : 31.250 FPS (1536 SPF)
Bit depth : 16 bits
Compression mode : Lossy
Delay relative to video : -5 ms
Stream size : 67.3 MiB (17%)
Title : Surround
Language : English
Service kind : Complete Main
Default : Yes
Forced : No





Adam Ruins Everything S02E18


Adam Ruins Everything S02E18


Adam Ruins Everything S02E18


Adam Ruins Everything S02E18


Adam Ruins Everything S02E18

All episodes