Alex, Inc. S01E10

Posted By: Tavaz
1080p (FullHD) / WEB-DL IMDb
Alex, Inc. S01E10

Alex, Inc. S01E10
WEB-DL | MKV | 1920x1080 | English | H264 @ 12049 kbps | E-AC-3 @ 640 kbps | 21 min 38 s | 1.92 GiB
Subtitles: English
Genre: Comedy

A brilliant radio journalist, husband, and father of two is about to do something crazy — quit his job and start his own company. He quickly discovers it’s going to be a lot harder than he thought.

e2002a81e56843f7b9837b22ac738be0.mkv (1.9 GB)



General
Unique ID : 92595465384857703461228856858218301829 (0x45A93CEA492743FED8AE8F549BF78985)
Complete name : ./e2002a81e56843f7b9837b22ac738be0.mkv
Format : Matroska
Format version : Version 4 / Version 2
File size : 1.92 GiB
Duration : 21 min 38 s
Overall bit rate mode : Variable
Overall bit rate : 12.7 Mb/s
Encoded date : UTC 2018-05-17 10:49:28
Writing application : mkvmerge v8.8.0 ('Wind at my back') 64bit
Writing library : libebml v1.3.3 + libmatroska v1.4.4

Video
ID : 1
Format : AVC
Format/Info : Advanced Video Codec
Format profile : High@L4
Format settings : CABAC / 4 Ref Frames
Format settings, CABAC : Yes
Format settings, RefFrames : 4 frames
Codec ID : V_MPEG4/ISO/AVC
Duration : 21 min 38 s
Bit rate mode : Variable
Bit rate : 12.0 Mb/s
Maximum bit rate : 15.0 Mb/s
Width : 1 920 pixels
Height : 1 080 pixels
Display aspect ratio : 16:9
Frame rate mode : Constant
Frame rate : 23.976 (24000/1001) FPS
Color space : YUV
Chroma subsampling : 4:2:0
Bit depth : 8 bits
Scan type : Progressive
Bits/(Pixel*Frame) : 0.242
Stream size : 1.82 GiB (95%)
Default : Yes
Forced : No
Color range : Limited
Color primaries : BT.709
Transfer characteristics : BT.709
Matrix coefficients : BT.709

Audio
ID : 2
Format : E-AC-3
Format/Info : Enhanced Audio Coding 3
Format settings, Endianness : Big
Codec ID : A_EAC3
Duration : 21 min 38 s
Bit rate mode : Constant
Bit rate : 640 kb/s
Channel(s) : 6 channels
Channel positions : Front: L C R, Side: L R, LFE
Sampling rate : 48.0 kHz
Frame rate : 187.500 FPS (256 SPF)
Compression mode : Lossy
Stream size : 99.1 MiB (5%)
Language : English
Service kind : Complete Main
Default : Yes
Forced : No

Text
ID : 3
Format : UTF-8
Codec ID : S_TEXT/UTF8
Codec ID/Info : UTF-8 Plain Text
Duration : 21 min 29 s
Bit rate : 128 b/s
Count of elements : 575
Stream size : 20.3 KiB (0%)
Title : SDH
Language : English
Default : No
Forced : No





Alex, Inc. S01E10


Alex, Inc. S01E10


Alex, Inc. S01E10


Alex, Inc. S01E10


Nonpareils - Scented Pictures (2018)

All episodes