American Masters S32E01

Posted By: Tavaz
720p (HD) / HDTV IMDb
American Masters S32E01

American Masters S32E01
HDTV | MKV | 1280x720 | English | H264 @ 2107 kbps | AC-3 @ 384 kbps | 1 h 53 min | 1.98 GiB
Subtitles: English
Genre: Documentary

American Masters is a PBS television show which produces biographies on artists, actors and writers of the United States who have left a profound impact on the nation's popular culture. It is produced by WNET in New York City. The show debuted on PBS in 1986.

Groups or organizations featured include: Actors Studio, Algonquin Round Table, Group Theatre, Sweet Honey in the Rock, Women of Tin Pan Alley, Negro Ensemble Company, Juilliard School, the Beat Generation, The Singer-songwriters of the 1970s, Sun Records, Vaudeville, and Warner Bros. Pictures.

dfacd919490840a1883006dce3aef5e2.mkv (2.0 GB)



General
Unique ID : 249722528891512332003307562114293909732 (0xBBDECF43208452688EC789FA2E8748E4)
Complete name : ./dfacd919490840a1883006dce3aef5e2.mkv
Format : Matroska
Format version : Version 4 / Version 2
File size : 1.98 GiB
Duration : 1 h 53 min
Overall bit rate : 2 494 kb/s
Encoded date : UTC 2018-01-22 01:48:47
Writing application : mkvmerge v9.7.1 ('Pandemonium') 64bit
Writing library : libebml v1.3.4 + libmatroska v1.4.5

Video
ID : 1
Format : AVC
Format/Info : Advanced Video Codec
Format profile : High@L4.1
Format settings : CABAC / 5 Ref Frames
Format settings, CABAC : Yes
Format settings, RefFrames : 5 frames
Codec ID : V_MPEG4/ISO/AVC
Duration : 1 h 53 min
Bit rate : 2 108 kb/s
Width : 1 280 pixels
Height : 720 pixels
Display aspect ratio : 16:9
Frame rate mode : Constant
Frame rate : 23.976 (24000/1001) FPS
Color space : YUV
Chroma subsampling : 4:2:0
Bit depth : 8 bits
Scan type : Progressive
Bits/(Pixel*Frame) : 0.095
Stream size : 1.68 GiB (85%)
Writing library : x264 core 155 r2901 7d0ff22
Encoding settings : cabac=1 / ref=5 / deblock=1:0:0 / analyse=0x3:0x113 / me=hex / subme=8 / psy=1 / psy_rd=1.00:0.00 / mixed_ref=1 / me_range=16 / chroma_me=1 / trellis=2 / 8x8dct=1 / cqm=0 / deadzone=21,11 / fast_pskip=1 / chroma_qp_offset=-2 / threads=12 / lookahead_threads=2 / sliced_threads=0 / nr=0 / decimate=1 / interlaced=0 / bluray_compat=0 / constrained_intra=0 / bframes=3 / b_pyramid=2 / b_adapt=1 / b_bias=0 / direct=3 / weightb=1 / open_gop=0 / weightp=2 / keyint=250 / keyint_min=23 / scenecut=40 / intra_refresh=0 / rc_lookahead=50 / rc=crf / mbtree=1 / crf=20.0 / qcomp=0.60 / qpmin=0 / qpmax=69 / qpstep=4 / ip_ratio=1.40 / aq=1:1.00
Default : Yes
Forced : No

Audio
ID : 2
Format : AC-3
Format/Info : Audio Coding 3
Format settings, Endianness : Big
Codec ID : A_AC3
Duration : 1 h 53 min
Bit rate mode : Constant
Bit rate : 384 kb/s
Channel(s) : 6 channels
Channel positions : Front: L C R, Side: L R, LFE
Sampling rate : 48.0 kHz
Frame rate : 31.250 FPS (1536 SPF)
Bit depth : 16 bits
Compression mode : Lossy
Stream size : 313 MiB (15%)
Language : English
Service kind : Complete Main
Default : Yes
Forced : No

Text
ID : 3
Format : UTF-8
Codec ID : S_TEXT/UTF8
Codec ID/Info : UTF-8 Plain Text
Duration : 1 h 53 min
Bit rate : 108 b/s
Count of elements : 1978
Stream size : 90.3 KiB (0%)
Language : English
Default : No
Forced : No





American Masters S32E01


American Masters S32E01


American Masters S32E01


American Masters S32E01


American Masters S32E01

All episodes