Archer S09E08

Posted By: Tavaz
1080p (FullHD) / WEB-DL IMDb
Archer S09E08

Archer S09E08
WEB-DL | MKV | 1920x1080 | English | H264 @ 6176 kbps | E-AC-3 @ 640 kbps | 19 min 48 s | 966 MiB
Subtitles: English
Genre: Animation, Drama, Comedy

Sterling Archer is the world's most daunting spy. He works for ISIS, a spy agency run by his mother. In between dealing with his boss and his co-workers - one of whom is his ex-girlfriend - Archer manages to annoy or seduce everyone that crosses his path. His antics are only excusable because at the end of the day, he still somehow always manages to thwart whatever crises was threatening mankind.

668807c0e7464d528cf1a2f4c9068e78.mkv (965.7 MB)



General
Unique ID : 338075958981226221211384792734804030728 (0xFE570FB090F6F6B4DF44FDAEEFB13508)
Complete name : ./668807c0e7464d528cf1a2f4c9068e78.mkv
Format : Matroska
Format version : Version 4 / Version 2
File size : 966 MiB
Duration : 19 min 48 s
Overall bit rate : 6 818 kb/s
Encoded date : UTC 2018-06-16 01:02:19
Writing application : mkvmerge v24.0.0 ('Beyond The Pale') 64-bit
Writing library : libebml v1.3.6 + libmatroska v1.4.9

Video
ID : 1
Format : AVC
Format/Info : Advanced Video Codec
Format profile : High@L4
Format settings : CABAC / 4 Ref Frames
Format settings, CABAC : Yes
Format settings, RefFrames : 4 frames
Codec ID : V_MPEG4/ISO/AVC
Duration : 19 min 48 s
Bit rate : 6 176 kb/s
Width : 1 920 pixels
Height : 1 080 pixels
Display aspect ratio : 16:9
Frame rate mode : Constant
Frame rate : 23.976 (24000/1001) FPS
Color space : YUV
Chroma subsampling : 4:2:0
Bit depth : 8 bits
Scan type : Progressive
Bits/(Pixel*Frame) : 0.124
Stream size : 875 MiB (91%)
Language : English
Default : Yes
Forced : No
Color range : Limited
Color primaries : BT.709
Transfer characteristics : BT.709
Matrix coefficients : BT.709

Audio
ID : 2
Format : E-AC-3
Format/Info : Enhanced Audio Coding 3
Format settings, Endianness : Big
Codec ID : A_EAC3
Duration : 19 min 48 s
Bit rate mode : Constant
Bit rate : 640 kb/s
Channel(s) : 6 channels
Channel positions : Front: L C R, Side: L R, LFE
Sampling rate : 48.0 kHz
Frame rate : 187.500 FPS (256 SPF)
Compression mode : Lossy
Delay relative to video : 16 ms
Stream size : 90.6 MiB (9%)
Language : English
Service kind : Complete Main
Default : Yes
Forced : No

Text
ID : 3
Format : UTF-8
Codec ID : S_TEXT/UTF8
Codec ID/Info : UTF-8 Plain Text
Duration : 19 min 41 s
Bit rate : 80 b/s
Count of elements : 384
Stream size : 11.6 KiB (0%)
Language : English
Default : No
Forced : No





Archer S09E08


Archer S09E08


Archer S09E08


Archer S09E08


Archer S09E08

All episodes