Featured TV Shows


Arrow S08E08

Posted By: Tavaz
Arrow S08E08

Arrow S08E08
MKV | 1920x1080 | English / Italiano | H264 @ 8798 kbps | AC-3 @ 192 kbps | 40 min 39 s | 2.66 GiB
Subtitles: English, Italiano
Genre: Crime, Dramma, Mistero


La serie segue le avventure del playboy miliardario Oliver Queen scomparso per cinque anni perché naufragato su un'isola infernale chiamata "Lian Yu" (Purgatorio). Il protagonista, salvatosi riesce a tornare finalmente a casa, a Starling City, dove assumerà l'identità segreta di Arrow, l'Incappucciato o il Giustiziere per combattere il crimine e la corruzione della sua città, seguendo una lista di nomi trovata in una tasca della giacca del padre prima di seppellirlo. Facendo uso delle abilità fisiche, delle tecniche di lotta, dell'incredibile maestria con l'arco e aiutato dal suo braccio destro e confidente John Diggle e dall'abile informatica Felicity Smoak, perseguiterà uno ad uno i criminali e i malviventi che minacciano la sua città e i suoi affetti. La narrazione segue due fili temporali distinti. In ogni episodio accanto alla svolgimento dell'evento relativo viene narrata brevemente ma continuativamente, in flashback, la storia degli anni sull'isola, della lotta per la sopravvivenza, delle scelte talora disumane compiute, dei combattimenti contro i malvagi incontrati, e di come tutto ciò ha trasformato Oliver in un combattente specializzato ad uccidere. Alla fine della seconda stagione, nei flashback, si apprende che Oliver è stato anche ad Hong Kong, in Cina, prima di riuscire a tornare a casa.

243f46ea620d121ede9c02b8ce6dcea7.mkv (2.7 GB)



General
Unique ID : 8102213746261591621026588298969537874 (0x6186DFAB9043978BD2FA5A93936DD52)
Complete name : ./243f46ea620d121ede9c02b8ce6dcea7.mkv
Format : Matroska
Format version : Version 4 / Version 2
File size : 2.66 GiB
Duration : 40 min 39 s
Overall bit rate : 9 377 kb/s
Encoded date : UTC 2020-05-22 21:13:57
Writing application : mkvmerge v7.6.0 ('Garden of Dreams') 64bit built on Feb 8 2015 15:12:28
Writing library : libebml v1.3.1 + libmatroska v1.4.2

Video
ID : 1
Format : AVC
Format/Info : Advanced Video Codec
Format profile : High@L4
Format settings : CABAC / 4 Ref Frames
Format settings, CABAC : Yes
Format settings, RefFrames : 4 frames
Codec ID : V_MPEG4/ISO/AVC
Duration : 40 min 39 s
Bit rate mode : Constant
Bit rate : 8 799 kb/s
Nominal bit rate : 10 000 kb/s
Width : 1 920 pixels
Height : 1 080 pixels
Display aspect ratio : 16:9
Frame rate mode : Constant
Frame rate : 25.000 FPS
Original frame rate : 23.976 (24000/1001) FPS
Color space : YUV
Chroma subsampling : 4:2:0
Bit depth : 8 bits
Scan type : Progressive
Bits/(Pixel*Frame) : 0.170
Stream size : 2.50 GiB (94%)
Default : Yes
Forced : No
Color range : Limited
Color primaries : BT.709
Transfer characteristics : BT.709
Matrix coefficients : BT.709

Audio #1
ID : 2
Format : AC-3
Format/Info : Audio Coding 3
Format settings, Endianness : Big
Codec ID : A_AC3
Duration : 40 min 39 s
Bit rate mode : Constant
Bit rate : 192 kb/s
Channel(s) : 2 channels
Channel positions : Front: L R
Sampling rate : 48.0 kHz
Frame rate : 31.250 FPS (1536 SPF)
Bit depth : 16 bits
Compression mode : Lossy
Stream size : 55.8 MiB (2%)
Title : ITA
Language : Italian
Service kind : Complete Main
Default : Yes
Forced : Yes

Audio #2
ID : 3
Format : AC-3
Format/Info : Audio Coding 3
Format settings, Endianness : Big
Codec ID : A_AC3
Duration : 40 min 39 s
Bit rate mode : Constant
Bit rate : 384 kb/s
Channel(s) : 6 channels
Channel positions : Front: L C R, Side: L R, LFE
Sampling rate : 48.0 kHz
Frame rate : 31.250 FPS (1536 SPF)
Bit depth : 16 bits
Compression mode : Lossy
Stream size : 112 MiB (4%)
Title : ENG
Language : English
Service kind : Complete Main
Default : No
Forced : No

Text #1
ID : 4
Format : UTF-8
Codec ID : S_TEXT/UTF8
Codec ID/Info : UTF-8 Plain Text
Duration : 39 min 8 s
Bit rate : 0 b/s
Count of elements : 5
Stream size : 147 Bytes (0%)
Title : Forced
Language : Italian
Default : Yes
Forced : Yes

Text #2
ID : 5
Format : UTF-8
Codec ID : S_TEXT/UTF8
Codec ID/Info : UTF-8 Plain Text
Duration : 40 min 0 s
Bit rate : 77 b/s
Count of elements : 725
Stream size : 22.8 KiB (0%)
Language : Italian
Default : No
Forced : No

Text #3
ID : 6
Format : UTF-8
Codec ID : S_TEXT/UTF8
Codec ID/Info : UTF-8 Plain Text
Duration : 40 min 32 s
Bit rate : 75 b/s
Count of elements : 777
Stream size : 22.4 KiB (0%)
Title : SDH
Language : English
Default : No
Forced : No





Arrow S08E08


Arrow S08E08


Arrow S08E08


Arrow S08E08


Arrow S08E08

All episodes