Featured TV Shows


Babylon Berlin S03E05

Posted By: Tavaz
1080p (FullHD) / WEBRip IMDb
Babylon Berlin S03E05

Babylon Berlin S03E05
WEBRip | MKV | 1920x1080 | Deutsch | H264 @ 7246 kbps | E-AC-3 @ 448 kbps | 47 min 22 s | 2.55 GiB
Subtitles: Deutsch, English
Genre: Drama


Colognian commissioner Gereon Rath moves to Berlin, the epicenter of political and social changes in the Golden Twenties.

2d57710c4d11458c8f2603597b1f0349.mkv (2.5 GB)



General
Unique ID : 131706030856545755822889571387056464213 (0x6315A8AB97CD7B8658C0F1A4ADD22155)
Complete name : ./2d57710c4d11458c8f2603597b1f0349.mkv
Format : Matroska
Format version : Version 4 / Version 2
File size : 2.55 GiB
Duration : 47 min 22 s
Overall bit rate mode : Variable
Overall bit rate : 7 695 kb/s
Encoded date : UTC 2020-03-28 21:23:06
Writing application : mkvmerge v43.0.0 ('The Quartermaster') 64-bit
Writing library : libebml v1.3.10 + libmatroska v1.5.2

Video
ID : 1
Format : AVC
Format/Info : Advanced Video Codec
Format profile : High@L4
Format settings : CABAC / 4 Ref Frames
Format settings, CABAC : Yes
Format settings, RefFrames : 4 frames
Codec ID : V_MPEG4/ISO/AVC
Duration : 47 min 21 s
Bit rate mode : Variable
Bit rate : 7 247 kb/s
Maximum bit rate : 20.0 Mb/s
Width : 1 920 pixels
Height : 1 080 pixels
Display aspect ratio : 16:9
Frame rate mode : Constant
Frame rate : 25.000 FPS
Color space : YUV
Chroma subsampling : 4:2:0
Bit depth : 8 bits
Scan type : Progressive
Bits/(Pixel*Frame) : 0.140
Stream size : 2.40 GiB (94%)
Writing library : x264 core 148 r2717 0d2410d
Encoding settings : cabac=1 / ref=4 / deblock=1:0:0 / analyse=0x3:0x111 / me=umh / subme=10 / psy=1 / psy_rd=1.00:0.00 / mixed_ref=1 / me_range=120 / chroma_me=1 / trellis=2 / 8x8dct=1 / cqm=0 / deadzone=21,11 / fast_pskip=1 / chroma_qp_offset=-2 / threads=6 / lookahead_threads=1 / sliced_threads=0 / nr=0 / decimate=1 / interlaced=0 / bluray_compat=0 / stitchable=1 / constrained_intra=0 / bframes=16 / b_pyramid=2 / b_adapt=2 / b_bias=0 / direct=3 / weightb=1 / open_gop=0 / weightp=2 / keyint=250 / keyint_min=126 / scenecut=0 / intra_refresh=0 / rc_lookahead=250 / rc=crf / mbtree=1 / crf=16.0 / qcomp=0.50 / qpmin=6 / qpmax=51 / qpstep=4 / vbv_maxrate=20000 / vbv_bufsize=25000 / crf_max=0.0 / nal_hrd=vbr / filler=0 / ip_ratio=1.40 / aq=1:0.80
Default : Yes
Forced : No

Audio
ID : 2
Format : E-AC-3
Format/Info : Enhanced Audio Coding 3
Format settings, Endianness : Big
Codec ID : A_EAC3
Duration : 47 min 22 s
Bit rate mode : Constant
Bit rate : 448 kb/s
Channel(s) : 6 channels
Channel positions : Front: L C R, Side: L R, LFE
Sampling rate : 48.0 kHz
Frame rate : 187.500 FPS (256 SPF)
Compression mode : Lossy
Stream size : 152 MiB (6%)
Title : German
Language : German
Service kind : Complete Main
Default : Yes
Forced : No

Text #1
ID : 3
Format : UTF-8
Codec ID : S_TEXT/UTF8
Codec ID/Info : UTF-8 Plain Text
Duration : 45 min 1 s
Bit rate : 49 b/s
Count of elements : 497
Stream size : 16.2 KiB (0%)
Title : English
Language : English
Default : Yes
Forced : No

Text #2
ID : 4
Format : UTF-8
Codec ID : S_TEXT/UTF8
Codec ID/Info : UTF-8 Plain Text
Duration : 45 min 3 s
Bit rate : 59 b/s
Count of elements : 547
Stream size : 19.5 KiB (0%)
Title : German
Language : German
Default : No
Forced : No





Babylon Berlin S03E05


Babylon Berlin S03E05


Babylon Berlin S03E05


Babylon Berlin S03E05


Babylon Berlin S03E05

All episodes