Featured TV Shows


Blinded S01E02

Posted By: Tavaz
1080p (FullHD) / HDTV IMDb
Blinded S01E02

Blinded S01E02
HDTV | MKV | 1920x1080 | H264 @ 2958 kbps | MPEG Audio @ 192 kbps | 44 min 3 s | 993 MiB


An ambitious financial reporter Bea receives an anonymous tip about irregularities at a Swedish major bank. Bea weathered a scoop, but the review is made more difficult by her love affair with the bank's married CEO, Peder. Based on Carolina Neurath's book "Speed Blind" which in turn is inspired by real events.

a598543d8001956610d68b20d3ef73f6.mkv (993.4 MB)



General
Unique ID : 124349918418703711091298190073121179649 (0x5D8CEC5353B65AAF85036717E5DB8801)
Complete name : ./a598543d8001956610d68b20d3ef73f6.mkv
Format : Matroska
Format version : Version 4 / Version 2
File size : 993 MiB
Duration : 44 min 3 s
Overall bit rate : 3 153 kb/s
Encoded date : UTC 2020-08-08 11:53:51
Writing application : mkvmerge v28.2.0 ('The Awakening') 64-bit
Writing library : libebml v1.3.6 + libmatroska v1.4.9

Video
ID : 1
Format : AVC
Format/Info : Advanced Video Codec
Format profile : High@L4
Format settings : CABAC / 4 Ref Frames
Format settings, CABAC : Yes
Format settings, RefFrames : 4 frames
Codec ID : V_MPEG4/ISO/AVC
Duration : 44 min 3 s
Bit rate : 2 959 kb/s
Width : 1 920 pixels
Height : 1 080 pixels
Display aspect ratio : 16:9
Frame rate mode : Variable
Frame rate : 25.000 FPS
Standard : Component
Color space : YUV
Chroma subsampling : 4:2:0
Bit depth : 8 bits
Scan type : MBAFF
Scan type, store method : Separated fields
Scan order : Top Field First
Bits/(Pixel*Frame) : 0.057
Stream size : 932 MiB (94%)
Default : Yes
Forced : No
Color range : Limited
Color primaries : BT.709
Transfer characteristics : BT.709
Matrix coefficients : BT.709

Audio
ID : 2
Format : MPEG Audio
Format version : Version 1
Format profile : Layer 2
Codec ID : A_MPEG/L2
Codec ID/Hint : MP2
Duration : 44 min 3 s
Bit rate mode : Constant
Bit rate : 192 kb/s
Channel(s) : 2 channels
Sampling rate : 48.0 kHz
Frame rate : 41.667 FPS (1152 SPF)
Compression mode : Lossy
Stream size : 60.5 MiB (6%)
Default : Yes
Forced : No





Blinded S01E02


Blinded S01E02


Blinded S01E02


Blinded S01E02


Blinded S01E02

All episodes