Featured TV Shows


Blinded S01E02

Posted By: Tavaz
720p (HD) / HDTV IMDb
Blinded S01E02

Blinded S01E02
HDTV | MKV | 1280x640 | H264 @ 1477 kbps | MPEG Audio @ 192 kbps | 44 min 3 s | 527 MiB


An ambitious financial reporter Bea receives an anonymous tip about irregularities at a Swedish major bank. Bea weathered a scoop, but the review is made more difficult by her love affair with the bank's married CEO, Peder. Based on Carolina Neurath's book "Speed Blind" which in turn is inspired by real events.

10cc5579cae8b6b2800353a67b144d87.mkv (526.7 MB)



General
Unique ID : 65589203509950060614486529774262270676 (0x3158056741E1AF16D7C16243A4E5BAD4)
Complete name : ./10cc5579cae8b6b2800353a67b144d87.mkv
Format : Matroska
Format version : Version 4 / Version 2
File size : 527 MiB
Duration : 44 min 3 s
Overall bit rate : 1 672 kb/s
Encoded date : UTC 2020-08-08 11:25:09
Writing application : mkvmerge v28.2.0 ('The Awakening') 64-bit
Writing library : libebml v1.3.6 + libmatroska v1.4.9

Video
ID : 1
Format : AVC
Format/Info : Advanced Video Codec
Format profile : High@L4.1
Format settings : CABAC / 5 Ref Frames
Format settings, CABAC : Yes
Format settings, RefFrames : 5 frames
Codec ID : V_MPEG4/ISO/AVC
Duration : 44 min 3 s
Bit rate : 1 478 kb/s
Width : 1 280 pixels
Height : 640 pixels
Display aspect ratio : 2.000
Frame rate mode : Constant
Frame rate : 25.000 FPS
Color space : YUV
Chroma subsampling : 4:2:0
Bit depth : 8 bits
Scan type : Progressive
Bits/(Pixel*Frame) : 0.072
Stream size : 466 MiB (88%)
Writing library : x264 core 161 r3018 db0d417
Encoding settings : cabac=1 / ref=5 / deblock=1:-2:-2 / analyse=0x3:0x113 / me=hex / subme=8 / psy=1 / psy_rd=1.00:0.00 / mixed_ref=1 / me_range=16 / chroma_me=1 / trellis=2 / 8x8dct=1 / cqm=0 / deadzone=21,11 / fast_pskip=1 / chroma_qp_offset=-2 / threads=12 / lookahead_threads=2 / sliced_threads=0 / nr=0 / decimate=1 / interlaced=0 / bluray_compat=0 / constrained_intra=0 / bframes=3 / b_pyramid=2 / b_adapt=1 / b_bias=0 / direct=3 / weightb=1 / open_gop=0 / weightp=2 / keyint=250 / keyint_min=25 / scenecut=40 / intra_refresh=0 / rc_lookahead=50 / rc=crf / mbtree=1 / crf=18.0 / qcomp=0.60 / qpmin=0 / qpmax=69 / qpstep=4 / ip_ratio=1.40 / aq=1:1.00
Default : Yes
Forced : No

Audio
ID : 2
Format : MPEG Audio
Format version : Version 1
Format profile : Layer 2
Codec ID : A_MPEG/L2
Codec ID/Hint : MP2
Duration : 44 min 3 s
Bit rate mode : Constant
Bit rate : 192 kb/s
Channel(s) : 2 channels
Sampling rate : 48.0 kHz
Frame rate : 41.667 FPS (1152 SPF)
Compression mode : Lossy
Stream size : 60.5 MiB (11%)
Default : Yes
Forced : No





Blinded S01E02


Blinded S01E02


Blinded S01E02


Blinded S01E02


Blinded S01E02

All episodes