Featured TV Shows


Blinded S01E03

Posted By: Tavaz
1080p (FullHD) / HDTV IMDb
Blinded S01E03

Blinded S01E03
HDTV | MKV | 1920x1080 | H264 @ 3101 kbps | MPEG Audio @ 192 kbps | 43 min 39 s | 1.01 GiB


An ambitious financial reporter Bea receives an anonymous tip about irregularities at a Swedish major bank. Bea weathered a scoop, but the review is made more difficult by her love affair with the bank's married CEO, Peder. Based on Carolina Neurath's book "Speed Blind" which in turn is inspired by real events.

6a909d6aa97c4638242ce2734a2404c9.mkv (1.0 GB)



General
Unique ID : 254629554840712605678755748605721674670 (0xBF8FDE520AED680675B69CE84A8183AE)
Complete name : ./6a909d6aa97c4638242ce2734a2404c9.mkv
Format : Matroska
Format version : Version 4 / Version 2
File size : 1.01 GiB
Duration : 43 min 39 s
Overall bit rate : 3 296 kb/s
Encoded date : UTC 2020-08-08 11:54:01
Writing application : mkvmerge v28.2.0 ('The Awakening') 64-bit
Writing library : libebml v1.3.6 + libmatroska v1.4.9

Video
ID : 1
Format : AVC
Format/Info : Advanced Video Codec
Format profile : High@L4
Format settings : CABAC / 4 Ref Frames
Format settings, CABAC : Yes
Format settings, RefFrames : 4 frames
Codec ID : V_MPEG4/ISO/AVC
Duration : 43 min 39 s
Bit rate : 3 102 kb/s
Width : 1 920 pixels
Height : 1 080 pixels
Display aspect ratio : 16:9
Frame rate mode : Constant
Frame rate : 25.000 FPS
Standard : Component
Color space : YUV
Chroma subsampling : 4:2:0
Bit depth : 8 bits
Scan type : MBAFF
Bits/(Pixel*Frame) : 0.060
Stream size : 969 MiB (94%)
Default : Yes
Forced : No
Color range : Limited
Color primaries : BT.709
Transfer characteristics : BT.709
Matrix coefficients : BT.709

Audio
ID : 2
Format : MPEG Audio
Format version : Version 1
Format profile : Layer 2
Codec ID : A_MPEG/L2
Codec ID/Hint : MP2
Duration : 43 min 39 s
Bit rate mode : Constant
Bit rate : 192 kb/s
Channel(s) : 2 channels
Sampling rate : 48.0 kHz
Frame rate : 41.667 FPS (1152 SPF)
Compression mode : Lossy
Stream size : 60.0 MiB (6%)
Default : Yes
Forced : No





Blinded S01E03


Blinded S01E03


Blinded S01E03


Blinded S01E03


Blinded S01E03

All episodes