Featured TV Shows


Castle Rock S02E07

Posted By: Tavaz
720p (HD) / WEBRip IMDb
Castle Rock S02E07

Castle Rock S02E07
WEBRip | MKV | 1280x720 | English | H264 @ 1561 kbps | E-AC-3 @ 256 kbps | 44 min 3 s | 573 MiB
Subtitles: English
Genre: Drama, Mystery


Based on the stories of Stephen King, the series intertwines characters and themes from the fictional town of Castle Rock.

725cd49fc1bc46cd9b72d5d234736f5b.mkv (573.3 MB)



General
Unique ID : 55334403073521092734259654594406682848 (0x29A104B4C66B5093C84AE0E9DB2090E0)
Complete name : ./725cd49fc1bc46cd9b72d5d234736f5b.mkv
Format : Matroska
Format version : Version 4 / Version 2
File size : 573 MiB
Duration : 44 min 3 s
Overall bit rate : 1 819 kb/s
Encoded date : UTC 2019-11-20 05:01:20
Writing application : mkvmerge v38.0.0 ('The Silent Type') 64-bit
Writing library : libebml v1.3.9 + libmatroska v1.5.2

Video
ID : 1
Format : AVC
Format/Info : Advanced Video Codec
Format profile : High@L3.1
Format settings : CABAC / 5 Ref Frames
Format settings, CABAC : Yes
Format settings, RefFrames : 5 frames
Codec ID : V_MPEG4/ISO/AVC
Duration : 44 min 3 s
Bit rate : 1 562 kb/s
Width : 1 280 pixels
Height : 720 pixels
Display aspect ratio : 16:9
Frame rate mode : Constant
Frame rate : 23.976 (24000/1001) FPS
Color space : YUV
Chroma subsampling : 4:2:0
Bit depth : 8 bits
Scan type : Progressive
Bits/(Pixel*Frame) : 0.071
Stream size : 492 MiB (86%)
Language : English
Default : Yes
Forced : No

Audio
ID : 2
Format : E-AC-3
Format/Info : Enhanced Audio Coding 3
Format settings, Endianness : Big
Codec ID : A_EAC3
Duration : 44 min 3 s
Bit rate mode : Constant
Bit rate : 256 kb/s
Channel(s) : 6 channels
Channel positions : Front: L C R, Side: L R, LFE
Sampling rate : 48.0 kHz
Frame rate : 187.500 FPS (256 SPF)
Compression mode : Lossy
Stream size : 80.7 MiB (14%)
Language : English
Service kind : Complete Main
Default : Yes
Forced : No

Text
ID : 3
Format : UTF-8
Codec ID : S_TEXT/UTF8
Codec ID/Info : UTF-8 Plain Text
Duration : 43 min 51 s
Bit rate : 42 b/s
Count of elements : 506
Stream size : 13.7 KiB (0%)
Title : English
Language : English
Default : No
Forced : No





Castle Rock S02E07


Castle Rock S02E07


Castle Rock S02E07


Castle Rock S02E07


Castle Rock S02E07

All episodes