Featured TV Shows


Catch-22 S01E06

Posted By: Tavaz
1080p (FullHD) / HDTV IMDb
Catch-22 S01E06

Catch-22 S01E06
HDTV | MKV | 1920x1080 | French / English | H264 @ 8066 kbps | E-AC-3 @ 192 kbps | 43 min 59 s | 2.60 GiB
Subtitles: French
Genre: Comedy, Drama


Set in Italy during World War II, the series follows the story of the incomparable, artful dodger Yossarian, a bombardier for the U.S. Air Force, who is furious because thousands of people he has never met are trying to kill him. But his real problem is not the enemy, but rather his own army which keeps increasing the number of missions the men must fly to complete their service.

catch.22.s01e06.final.multi.1080p.hdtv.h264-hybris.mkv (2.6 GB)



General
Unique ID : 243812198984367416567940757362339084362 (0xB76C857FEA6DB62A0CE6BD22C389F84A)
Complete name : ./catch.22.s01e06.final.multi.1080p.hdtv.h264-hybris.mkv
Format : Matroska
Format version : Version 4 / Version 2
File size : 2.60 GiB
Duration : 43 min 59 s
Overall bit rate : 8 455 kb/s
Encoded date : UTC 2019-06-07 16:06:33
Writing application : mkvmerge v34.0.0 ('Sight and Seen') 32-bit
Writing library : libebml v1.3.7 + libmatroska v1.5.0

Video
ID : 1
Format : AVC
Format/Info : Advanced Video Codec
Format profile : High@L4
Format settings : CABAC / 4 Ref Frames
Format settings, CABAC : Yes
Format settings, RefFrames : 4 frames
Codec ID : V_MPEG4/ISO/AVC
Duration : 43 min 59 s
Bit rate : 8 067 kb/s
Width : 1 920 pixels
Height : 1 080 pixels
Display aspect ratio : 16:9
Frame rate mode : Variable
Frame rate : 50.000 FPS
Original frame rate : 25.000 FPS
Standard : Component
Color space : YUV
Chroma subsampling : 4:2:0
Bit depth : 8 bits
Scan type : Interlaced
Scan type, store method : Separated fields
Scan order : Top Field First
Bits/(Pixel*Frame) : 0.078
Stream size : 2.48 GiB (95%)
Title : Catch-22 S01E06
Language : French
Default : Yes
Forced : No
Color range : Limited
Color primaries : BT.709
Transfer characteristics : BT.709
Matrix coefficients : BT.709

Audio #1
ID : 2
Format : E-AC-3
Format/Info : Enhanced Audio Coding 3
Format settings, Endianness : Big
Codec ID : A_EAC3
Duration : 43 min 59 s
Bit rate mode : Constant
Bit rate : 192 kb/s
Channel(s) : 6 channels
Channel positions : Front: L C R, Side: L R, LFE
Sampling rate : 48.0 kHz
Frame rate : 187.500 FPS (256 SPF)
Compression mode : Lossy
Stream size : 60.4 MiB (2%)
Title : Français E-AC3 5.1
Language : French
Service kind : Complete Main
Default : Yes
Forced : No

Audio #2
ID : 3
Format : E-AC-3
Format/Info : Enhanced Audio Coding 3
Format settings, Endianness : Big
Codec ID : A_EAC3
Duration : 43 min 59 s
Bit rate mode : Constant
Bit rate : 192 kb/s
Channel(s) : 6 channels
Channel positions : Front: L C R, Side: L R, LFE
Sampling rate : 48.0 kHz
Frame rate : 187.500 FPS (256 SPF)
Compression mode : Lossy
Stream size : 60.4 MiB (2%)
Title : Anglais E-AC3 5.1
Language : English
Service kind : Complete Main
Default : No
Forced : No

Text
ID : 5
Format : UTF-8
Codec ID : S_TEXT/UTF8
Codec ID/Info : UTF-8 Plain Text
Duration : 43 min 39 s
Bit rate : 40 b/s
Count of elements : 464
Stream size : 12.8 KiB (0%)
Title : Français
Language : French
Default : No
Forced : No





Catch-22 S01E06


Catch-22 S01E06


Catch-22 S01E06


Catch-22 S01E06


Catch-22 S01E06

All episodes