Featured TV Shows


Chernobyl S01E01

Posted By: Tavaz
1080p (FullHD) / WEB-DL IMDb
Chernobyl S01E01

Chernobyl S01E01
WEB-DL | MKV | 1920x1080 | English | H264 @ 9087 kbps | E-AC-3 @ 640 kbps | 1 h 0 min | 4.09 GiB
Subtitles: English
Genre: Drama


A dramatization of the true story of one of the worst man-made catastrophes in history, the catastrophic nuclear accident at Chernobyl. A tale of the brave men and women who sacrificed to save Europe from unimaginable disaster.

563e4a1a6eb14a7793b7a9e979a10a97.mkv (4.1 GB)



General
Unique ID : 221449137961324942069097558188970648026 (0xA6998D76EBDCB324D2725646293AA1DA)
Complete name : ./563e4a1a6eb14a7793b7a9e979a10a97.mkv
Format : Matroska
Format version : Version 4 / Version 2
File size : 4.09 GiB
Duration : 1 h 0 min
Overall bit rate : 9 730 kb/s
Encoded date : UTC 2019-05-07 01:51:15
Writing application : mkvmerge v21.0.0 ('Tardigrades Will Inherit The Earth') 64-bit
Writing library : libebml v1.3.5 + libmatroska v1.4.8

Video
ID : 1
Format : AVC
Format/Info : Advanced Video Codec
Format profile : High@L4
Format settings : CABAC / 4 Ref Frames
Format settings, CABAC : Yes
Format settings, RefFrames : 4 frames
Codec ID : V_MPEG4/ISO/AVC
Duration : 1 h 0 min
Bit rate mode : Constant
Bit rate : 9 088 kb/s
Nominal bit rate : 10 000 kb/s
Width : 1 920 pixels
Height : 1 080 pixels
Display aspect ratio : 16:9
Frame rate mode : Constant
Frame rate : 23.976 (24000/1001) FPS
Color space : YUV
Chroma subsampling : 4:2:0
Bit depth : 8 bits
Scan type : Progressive
Bits/(Pixel*Frame) : 0.183
Stream size : 3.82 GiB (93%)
Default : Yes
Forced : No
Color range : Limited
Color primaries : BT.709
Transfer characteristics : BT.709
Matrix coefficients : BT.709

Audio
ID : 2
Format : E-AC-3
Format/Info : Enhanced Audio Coding 3
Format settings, Endianness : Big
Codec ID : A_EAC3
Duration : 1 h 0 min
Bit rate mode : Constant
Bit rate : 640 kb/s
Channel(s) : 6 channels
Channel positions : Front: L C R, Side: L R, LFE
Sampling rate : 48.0 kHz
Frame rate : 187.500 FPS (256 SPF)
Compression mode : Lossy
Delay relative to video : 24 ms
Stream size : 276 MiB (7%)
Language : English
Service kind : Complete Main
Default : Yes
Forced : No

Text #1
ID : 3
Format : UTF-8
Codec ID : S_TEXT/UTF8
Codec ID/Info : UTF-8 Plain Text
Duration : 59 min 46 s
Bit rate : 45 b/s
Count of elements : 639
Stream size : 19.9 KiB (0%)
Language : English
Default : No
Forced : No

Text #2
ID : 4
Format : UTF-8
Codec ID : S_TEXT/UTF8
Codec ID/Info : UTF-8 Plain Text
Duration : 59 min 46 s
Bit rate : 45 b/s
Count of elements : 674
Stream size : 20.1 KiB (0%)
Title : SDH
Language : English
Default : No
Forced : No





Chernobyl S01E01


Chernobyl S01E01


Chernobyl S01E01


Chernobyl S01E01


Chernobyl S01E01

All episodes