Featured TV Shows


Chernobyl S01E01

Posted By: Tavaz
1080p (FullHD) / BDRip IMDb
Chernobyl S01E01

Chernobyl S01E01
BluRay Remux | MKV | 1920x1080 | English | H264 @ 24854 kbps | DTS | 58 min 43 s | 11.4 GiB
Subtitles: Swedish, Danish, Spanish, Finnish, Norwegian, Czech, English, French, German, Dutch
Genre: Drama


A dramatization of the true story of one of the worst man-made catastrophes in history, the catastrophic nuclear accident at Chernobyl. A tale of the brave men and women who sacrificed to save Europe from unimaginable disaster.

Chernobyl.S01E01.1.23.45.Hybrid.1080p.BluRay.REMUX.AVC.DTS-HD.MA.5.1-EPSiLON-Obfuscated=7c944fea7d1f3b1902b8623d50033d9b3eebf048.part1.rar (6.0 GB)
Chernobyl.S01E01.1.23.45.Hybrid.1080p.BluRay.REMUX.AVC.DTS-HD.MA.5.1-EPSiLON-Obfuscated=7c944fea7d1f3b1902b8623d50033d9b3eebf048.part2.rar (5.6 GB)



General
Unique ID : 54579493008327667066729659650458280480 (0x290FA0C42D462BBD24A588FD6A286220)
Complete name : ./cc28faec696342ecb9493ccd004d708b.mkv
Format : Matroska
Format version : Version 4 / Version 2
File size : 11.4 GiB
Duration : 58 min 43 s
Overall bit rate mode : Variable
Overall bit rate : 27.9 Mb/s
Movie name : Chernobyl - S01E01 - 1:23:45
Track name/Position : 1
Track name/Total : 5
Encoded date : UTC 2019-10-08 11:01:59
Writing application : mkvmerge v34.0.0 ('Sight and Seen') 64-bit
Writing library : libebml v1.3.9 + libmatroska v1.5.2
IMDB : tt8162428
TMDB : tv/87108
TVDB : 360893

Video
ID : 1
Format : AVC
Format/Info : Advanced Video Codec
Format profile : High@L4.1
Format settings : CABAC / 3 Ref Frames
Format settings, CABAC : Yes
Format settings, RefFrames : 3 frames
Codec ID : V_MPEG4/ISO/AVC
Duration : 58 min 43 s
Bit rate mode : Variable
Bit rate : 24.9 Mb/s
Maximum bit rate : 34.0 Mb/s
Width : 1 920 pixels
Height : 1 080 pixels
Display aspect ratio : 16:9
Frame rate mode : Constant
Frame rate : 23.976 (24000/1001) FPS
Color space : YUV
Chroma subsampling : 4:2:0
Bit depth : 8 bits
Scan type : Progressive
Bits/(Pixel*Frame) : 0.500
Stream size : 10.2 GiB (89%)
Title : MPEG-4 AVC Video / 24943 kbps / 1080p / 23.976 fps / 16:9 / High Profile 4.1
Default : Yes
Forced : No

Audio
ID : 2
Format : DTS
Format/Info : Digital Theater Systems
Format profile : MA / Core
Mode : 16
Format settings, Endianness : Big
Codec ID : A_DTS
Duration : 58 min 43 s
Bit rate mode : Variable / Constant
Bit rate : 2 782 kb/s / 1 509 kb/s
Channel(s) : 6 channels
Channel positions : Front: L C R, Side: L R, LFE
Sampling rate : 48.0 kHz
Frame rate : 93.750 FPS (512 SPF)
Bit depth : 24 bits
Compression mode : Lossless / Lossy
Delay relative to video : 4 ms
Stream size : 1.14 GiB (10%)
Title : DTS-HD Master Audio / 5.1 / 48 kHz / 2782 kbps / 24-bit
Language : English
Default : Yes
Forced : No

Text #1
ID : 3
Format : PGS
Codec ID : S_HDMV/PGS
Codec ID/Info : Picture based subtitle format used on BDs/HD-DVDs
Duration : 33 s 520 ms
Bit rate : 71.9 kb/s
Count of elements : 24
Stream size : 294 KiB (0%)
Title : Forced
Language : English
Default : Yes
Forced : Yes

Text #2
ID : 4
Format : PGS
Codec ID : S_HDMV/PGS
Codec ID/Info : Picture based subtitle format used on BDs/HD-DVDs
Duration : 55 min 22 s
Bit rate : 31.6 kb/s
Count of elements : 1273
Stream size : 12.5 MiB (0%)
Title : SDH
Language : English
Default : No
Forced : No

Text #3
ID : 5
Format : PGS
Codec ID : S_HDMV/PGS
Codec ID/Info : Picture based subtitle format used on BDs/HD-DVDs
Duration : 53 min 25 s
Bit rate : 16.0 kb/s
Count of elements : 902
Stream size : 6.12 MiB (0%)
Language : Czech
Default : No
Forced : No

Text #4
ID : 6
Format : PGS
Codec ID : S_HDMV/PGS
Codec ID/Info : Picture based subtitle format used on BDs/HD-DVDs
Duration : 53 min 24 s
Bit rate : 23.4 kb/s
Count of elements : 820
Stream size : 8.93 MiB (0%)
Language : Danish
Default : No
Forced : No

Text #5
ID : 7
Format : PGS
Codec ID : S_HDMV/PGS
Codec ID/Info : Picture based subtitle format used on BDs/HD-DVDs
Duration : 53 min 25 s
Bit rate : 21.8 kb/s
Count of elements : 694
Stream size : 8.32 MiB (0%)
Language : Dutch
Default : No
Forced : No

Text #6
ID : 8
Format : PGS
Codec ID : S_HDMV/PGS
Codec ID/Info : Picture based subtitle format used on BDs/HD-DVDs
Duration : 53 min 24 s
Bit rate : 23.0 kb/s
Count of elements : 878
Stream size : 8.81 MiB (0%)
Language : Finnish
Default : No
Forced : No

Text #7
ID : 9
Format : PGS
Codec ID : S_HDMV/PGS
Codec ID/Info : Picture based subtitle format used on BDs/HD-DVDs
Duration : 58 min 1 s
Bit rate : 22.8 kb/s
Count of elements : 1098
Stream size : 9.47 MiB (0%)
Language : French
Default : No
Forced : No

Text #8
ID : 10
Format : PGS
Codec ID : S_HDMV/PGS
Codec ID/Info : Picture based subtitle format used on BDs/HD-DVDs
Duration : 53 min 25 s
Bit rate : 31.0 kb/s
Count of elements : 960
Stream size : 11.8 MiB (0%)
Language : German
Default : No
Forced : No

Text #9
ID : 11
Format : PGS
Codec ID : S_HDMV/PGS
Codec ID/Info : Picture based subtitle format used on BDs/HD-DVDs
Duration : 53 min 26 s
Bit rate : 22.9 kb/s
Count of elements : 817
Stream size : 8.77 MiB (0%)
Language : Norwegian
Default : No
Forced : No

Text #10
ID : 12
Format : PGS
Codec ID : S_HDMV/PGS
Codec ID/Info : Picture based subtitle format used on BDs/HD-DVDs
Duration : 53 min 24 s
Bit rate : 23.2 kb/s
Count of elements : 860
Stream size : 8.85 MiB (0%)
Title : Castilian
Language : Spanish
Default : No
Forced : No

Text #11
ID : 13
Format : PGS
Codec ID : S_HDMV/PGS
Codec ID/Info : Picture based subtitle format used on BDs/HD-DVDs
Duration : 53 min 24 s
Bit rate : 27.7 kb/s
Count of elements : 1258
Stream size : 10.6 MiB (0%)
Title : Latin American
Language : Spanish
Default : No
Forced : No

Text #12
ID : 14
Format : PGS
Codec ID : S_HDMV/PGS
Codec ID/Info : Picture based subtitle format used on BDs/HD-DVDs
Duration : 53 min 24 s
Bit rate : 24.6 kb/s
Count of elements : 836
Stream size : 9.40 MiB (0%)
Language : Swedish
Default : No
Forced : No

Menu
00:00:00.000 : en:Chapter 1
00:00:32.741 : en:Chapter 2
00:06:29.597 : en:Chapter 3
00:16:32.867 : en:Chapter 4
00:26:25.918 : en:Chapter 5
00:35:31.379 : en:Chapter 6
00:47:33.142 : en:Chapter 7
00:56:11.118 : en:Chapter 8





Chernobyl S01E01


Chernobyl S01E01


Chernobyl S01E01


Chernobyl S01E01


Chernobyl S01E01

All episodes