Featured TV Shows


Chernobyl S01E01

Posted By: Tavaz
1080p (FullHD) / HDTV IMDb
Chernobyl S01E01

Chernobyl S01E01
HDTV | MKV | 1920x960 | French / English | H264 @ 7482 kbps | E-AC-3 @ 256 kbps | 56 min 32 s | 3.16 GiB
Subtitles: French
Genre: Drama


A dramatization of the true story of one of the worst man-made catastrophes in history, the catastrophic nuclear accident at Chernobyl. A tale of the brave men and women who sacrificed to save Europe from unimaginable disaster.

chernobyl.s01e01.multi.1080p.hdtv.x264-hybris.mkv (3.2 GB)



General
Unique ID : 37733509493499703863536204521945594907 (0x1C6335A74CA091F0FF7A315A78027C1B)
Complete name : ./chernobyl.s01e01.multi.1080p.hdtv.x264-hybris.mkv
Format : Matroska
Format version : Version 4 / Version 2
File size : 3.16 GiB
Duration : 56 min 32 s
Overall bit rate : 7 996 kb/s
Encoded date : UTC 2019-05-07 21:45:19
Writing application : mkvmerge v33.1.0 ('Primrose') 32-bit
Writing library : libebml v1.3.7 + libmatroska v1.5.0

Video
ID : 1
Format : AVC
Format/Info : Advanced Video Codec
Format profile : High@L4.1
Format settings : CABAC / 4 Ref Frames
Format settings, CABAC : Yes
Format settings, RefFrames : 4 frames
Codec ID : V_MPEG4/ISO/AVC
Duration : 56 min 32 s
Bit rate : 7 482 kb/s
Width : 1 920 pixels
Height : 960 pixels
Display aspect ratio : 2.000
Frame rate mode : Constant
Frame rate : 25.000 FPS
Color space : YUV
Chroma subsampling : 4:2:0
Bit depth : 8 bits
Scan type : Progressive
Bits/(Pixel*Frame) : 0.162
Stream size : 2.95 GiB (94%)
Title : Chernobyl S01E01
Writing library : x264 core 157 r2969 d4099dd
Encoding settings : opencl=1 / cabac=1 / ref=4 / deblock=1:-2:-2 / analyse=0x3:0x133 / me=umh / subme=8 / psy=1 / psy_rd=1.00:0.00 / mixed_ref=1 / me_range=24 / chroma_me=1 / trellis=2 / 8x8dct=1 / cqm=0 / deadzone=21,11 / fast_pskip=0 / chroma_qp_offset=-2 / threads=24 / lookahead_threads=4 / sliced_threads=0 / nr=0 / decimate=1 / interlaced=0 / bluray_compat=0 / constrained_intra=0 / bframes=3 / b_pyramid=2 / b_adapt=2 / b_bias=0 / direct=3 / weightb=1 / open_gop=0 / weightp=2 / keyint=250 / keyint_min=25 / scenecut=40 / intra_refresh=0 / rc_lookahead=60 / rc=crf / mbtree=1 / crf=17.0 / qcomp=0.60 / qpmin=0 / qpmax=69 / qpstep=4 / ip_ratio=1.40 / aq=1:1.00
Language : French
Default : Yes
Forced : No
Color range : Limited
Matrix coefficients : BT.709

Audio #1
ID : 2
Format : E-AC-3
Format/Info : Enhanced Audio Coding 3
Format settings, Endianness : Big
Codec ID : A_EAC3
Duration : 56 min 32 s
Bit rate mode : Constant
Bit rate : 256 kb/s
Channel(s) : 6 channels
Channel positions : Front: L C R, Side: L R, LFE
Sampling rate : 48.0 kHz
Frame rate : 187.500 FPS (256 SPF)
Compression mode : Lossy
Stream size : 104 MiB (3%)
Title : Français E-AC3 5.1
Language : French
Service kind : Complete Main
Default : Yes
Forced : No

Audio #2
ID : 3
Format : E-AC-3
Format/Info : Enhanced Audio Coding 3
Format settings, Endianness : Big
Codec ID : A_EAC3
Duration : 56 min 32 s
Bit rate mode : Constant
Bit rate : 256 kb/s
Channel(s) : 6 channels
Channel positions : Front: L C R, Side: L R, LFE
Sampling rate : 48.0 kHz
Frame rate : 187.500 FPS (256 SPF)
Compression mode : Lossy
Stream size : 104 MiB (3%)
Title : Anglais E-AC3 5.1
Language : English
Service kind : Complete Main
Default : No
Forced : No

Text
ID : 5
Format : UTF-8
Codec ID : S_TEXT/UTF8
Codec ID/Info : UTF-8 Plain Text
Duration : 53 min 26 s
Bit rate : 38 b/s
Count of elements : 527
Stream size : 15.2 KiB (0%)
Title : Français
Language : French
Default : No
Forced : No





Chernobyl S01E01


Chernobyl S01E01


Chernobyl S01E01


Chernobyl S01E01


Chernobyl S01E01

All episodes