Featured TV Shows


Chernobyl S01E03

Posted By: Tavaz
1080p (FullHD) / WEB-DL IMDb
Chernobyl S01E03

Chernobyl S01E03
WEB-DL | MKV | 1920x1080 | English | H264 @ 8985 kbps | E-AC-3 @ 640 kbps | 1 h 3 min | 4.27 GiB
Subtitles: English
Genre: Drama


A dramatization of the true story of one of the worst man-made catastrophes in history, the catastrophic nuclear accident at Chernobyl. A tale of the brave men and women who sacrificed to save Europe from unimaginable disaster.

c022d67b6d29449690391d07a972f5d0.mkv (4.3 GB)



General
Unique ID : 43035133707524067830809763969528470696 (0x206043E886733515E09614A7B9BF9CA8)
Complete name : ./c022d67b6d29449690391d07a972f5d0.mkv
Format : Matroska
Format version : Version 4 / Version 2
File size : 4.27 GiB
Duration : 1 h 3 min
Overall bit rate : 9 628 kb/s
Encoded date : UTC 2019-05-21 01:14:50
Writing application : mkvmerge v21.0.0 ('Tardigrades Will Inherit The Earth') 64-bit
Writing library : libebml v1.3.5 + libmatroska v1.4.8

Video
ID : 1
Format : AVC
Format/Info : Advanced Video Codec
Format profile : High@L4
Format settings : CABAC / 4 Ref Frames
Format settings, CABAC : Yes
Format settings, RefFrames : 4 frames
Codec ID : V_MPEG4/ISO/AVC
Duration : 1 h 3 min
Bit rate mode : Constant
Bit rate : 8 985 kb/s
Nominal bit rate : 10 000 kb/s
Width : 1 920 pixels
Height : 1 080 pixels
Display aspect ratio : 16:9
Frame rate mode : Constant
Frame rate : 23.976 (24000/1001) FPS
Color space : YUV
Chroma subsampling : 4:2:0
Bit depth : 8 bits
Scan type : Progressive
Bits/(Pixel*Frame) : 0.181
Stream size : 3.99 GiB (93%)
Default : Yes
Forced : No
Color range : Limited
Color primaries : BT.709
Transfer characteristics : BT.709
Matrix coefficients : BT.709

Audio
ID : 2
Format : E-AC-3
Format/Info : Enhanced Audio Coding 3
Format settings, Endianness : Big
Codec ID : A_EAC3
Duration : 1 h 3 min
Bit rate mode : Constant
Bit rate : 640 kb/s
Channel(s) : 6 channels
Channel positions : Front: L C R, Side: L R, LFE
Sampling rate : 48.0 kHz
Frame rate : 187.500 FPS (256 SPF)
Compression mode : Lossy
Delay relative to video : 28 ms
Stream size : 291 MiB (7%)
Language : English
Service kind : Complete Main
Default : Yes
Forced : No

Text #1
ID : 3
Format : UTF-8
Codec ID : S_TEXT/UTF8
Codec ID/Info : UTF-8 Plain Text
Duration : 1 h 3 min
Bit rate : 45 b/s
Count of elements : 706
Stream size : 21.1 KiB (0%)
Language : English
Default : No
Forced : No

Text #2
ID : 4
Format : UTF-8
Codec ID : S_TEXT/UTF8
Codec ID/Info : UTF-8 Plain Text
Duration : 1 h 3 min
Bit rate : 45 b/s
Count of elements : 738
Stream size : 21.3 KiB (0%)
Title : SDH
Language : English
Default : No
Forced : No





Chernobyl S01E03


Chernobyl S01E03


Chernobyl S01E03


Chernobyl S01E03


Chernobyl S01E03

All episodes