Featured TV Shows


Chernobyl S01E03

Posted By: Tavaz
1080p (FullHD) / BDRip IMDb
Chernobyl S01E03

Chernobyl S01E03
BluRay Remux | MKV | 1920x1080 | English | H264 @ 25019 kbps | DTS | 1 h 1 min | 12.2 GiB
Subtitles: Swedish, Danish, Spanish, Finnish, Norwegian, Czech, English, French, German, Dutch
Genre: Drama


A dramatization of the true story of one of the worst man-made catastrophes in history, the catastrophic nuclear accident at Chernobyl. A tale of the brave men and women who sacrificed to save Europe from unimaginable disaster.

Chernobyl.S01E03.Open.Wide.O.Earth.Hybrid.1080p.BluRay.REMUX.AVC.DTS-HD.MA.5.1-EPSiLON-Obfuscated=0115d456c662541b61fd8ef2c9c87d22aaf18132.part1.rar (6.4 GB)
Chernobyl.S01E03.Open.Wide.O.Earth.Hybrid.1080p.BluRay.REMUX.AVC.DTS-HD.MA.5.1-EPSiLON-Obfuscated=0115d456c662541b61fd8ef2c9c87d22aaf18132.part2.rar (5.9 GB)



General
Unique ID : 127799842271267899237114969009668021268 (0x60255AB42DEFB355BEDBE3D04BE4DC14)
Complete name : ./572794dbacf84aac903f44261d7c4f98.mkv
Format : Matroska
Format version : Version 4 / Version 2
File size : 12.2 GiB
Duration : 1 h 1 min
Overall bit rate mode : Variable
Overall bit rate : 28.4 Mb/s
Movie name : Chernobyl - S01E03 - Open Wide, O Earth
Track name/Position : 3
Track name/Total : 5
Encoded date : UTC 2019-10-08 15:07:00
Writing application : mkvmerge v34.0.0 ('Sight and Seen') 64-bit
Writing library : libebml v1.3.9 + libmatroska v1.5.2
IMDB : tt9166672
TMDB : tv/87108
TVDB : 360893

Video
ID : 1
Format : AVC
Format/Info : Advanced Video Codec
Format profile : High@L4.1
Format settings : CABAC / 3 Ref Frames
Format settings, CABAC : Yes
Format settings, RefFrames : 3 frames
Codec ID : V_MPEG4/ISO/AVC
Duration : 1 h 1 min
Bit rate mode : Variable
Bit rate : 25.0 Mb/s
Maximum bit rate : 34.0 Mb/s
Width : 1 920 pixels
Height : 1 080 pixels
Display aspect ratio : 16:9
Frame rate mode : Constant
Frame rate : 23.976 (24000/1001) FPS
Color space : YUV
Chroma subsampling : 4:2:0
Bit depth : 8 bits
Scan type : Progressive
Bits/(Pixel*Frame) : 0.503
Stream size : 10.8 GiB (88%)
Title : MPEG-4 AVC Video / 24943 kbps / 1080p / 23.976 fps / 16:9 / High Profile 4.1
Default : Yes
Forced : No

Audio
ID : 2
Format : DTS
Format/Info : Digital Theater Systems
Format profile : MA / Core
Mode : 16
Format settings, Endianness : Big
Codec ID : A_DTS
Duration : 1 h 1 min
Bit rate mode : Variable / Constant
Bit rate : 3 072 kb/s / 1 509 kb/s
Channel(s) : 6 channels
Channel positions : Front: L C R, Side: L R, LFE
Sampling rate : 48.0 kHz
Frame rate : 93.750 FPS (512 SPF)
Bit depth : 24 bits
Compression mode : Lossless / Lossy
Delay relative to video : 8 ms
Stream size : 1.33 GiB (11%)
Title : DTS-HD Master Audio / 5.1 / 48 kHz / 3094 kbps / 24-bit
Language : English
Default : Yes
Forced : No

Text #1
ID : 3
Format : PGS
Codec ID : S_HDMV/PGS
Codec ID/Info : Picture based subtitle format used on BDs/HD-DVDs
Duration : 55 min 17 s
Bit rate : 31.7 kb/s
Count of elements : 1306
Stream size : 12.5 MiB (0%)
Title : SDH
Language : English
Default : No
Forced : No

Text #2
ID : 4
Format : PGS
Codec ID : S_HDMV/PGS
Codec ID/Info : Picture based subtitle format used on BDs/HD-DVDs
Duration : 54 min 10 s
Bit rate : 17.4 kb/s
Count of elements : 1016
Stream size : 6.76 MiB (0%)
Language : Czech
Default : No
Forced : No

Text #3
ID : 5
Format : PGS
Codec ID : S_HDMV/PGS
Codec ID/Info : Picture based subtitle format used on BDs/HD-DVDs
Duration : 52 min 20 s
Bit rate : 27.1 kb/s
Count of elements : 884
Stream size : 10.1 MiB (0%)
Language : Danish
Default : No
Forced : No

Text #4
ID : 6
Format : PGS
Codec ID : S_HDMV/PGS
Codec ID/Info : Picture based subtitle format used on BDs/HD-DVDs
Duration : 54 min 6 s
Bit rate : 25.1 kb/s
Count of elements : 752
Stream size : 9.72 MiB (0%)
Language : Dutch
Default : No
Forced : No

Text #5
ID : 7
Format : PGS
Codec ID : S_HDMV/PGS
Codec ID/Info : Picture based subtitle format used on BDs/HD-DVDs
Duration : 52 min 20 s
Bit rate : 26.5 kb/s
Count of elements : 884
Stream size : 9.94 MiB (0%)
Language : Finnish
Default : No
Forced : No

Text #6
ID : 8
Format : PGS
Codec ID : S_HDMV/PGS
Codec ID/Info : Picture based subtitle format used on BDs/HD-DVDs
Duration : 1 h 1 min
Bit rate : 25.1 kb/s
Count of elements : 1238
Stream size : 11.0 MiB (0%)
Language : French
Default : No
Forced : No

Text #7
ID : 9
Format : PGS
Codec ID : S_HDMV/PGS
Codec ID/Info : Picture based subtitle format used on BDs/HD-DVDs
Duration : 52 min 20 s
Bit rate : 35.2 kb/s
Count of elements : 992
Stream size : 13.2 MiB (0%)
Language : German
Default : No
Forced : No

Text #8
ID : 10
Format : PGS
Codec ID : S_HDMV/PGS
Codec ID/Info : Picture based subtitle format used on BDs/HD-DVDs
Duration : 52 min 20 s
Bit rate : 26.2 kb/s
Count of elements : 882
Stream size : 9.80 MiB (0%)
Language : Norwegian
Default : No
Forced : No

Text #9
ID : 11
Format : PGS
Codec ID : S_HDMV/PGS
Codec ID/Info : Picture based subtitle format used on BDs/HD-DVDs
Duration : 52 min 20 s
Bit rate : 27.1 kb/s
Count of elements : 898
Stream size : 10.1 MiB (0%)
Title : Castilian
Language : Spanish
Default : No
Forced : No

Text #10
ID : 12
Format : PGS
Codec ID : S_HDMV/PGS
Codec ID/Info : Picture based subtitle format used on BDs/HD-DVDs
Duration : 52 min 20 s
Bit rate : 30.4 kb/s
Count of elements : 1256
Stream size : 11.4 MiB (0%)
Title : Latin American
Language : Spanish
Default : No
Forced : No

Text #11
ID : 13
Format : PGS
Codec ID : S_HDMV/PGS
Codec ID/Info : Picture based subtitle format used on BDs/HD-DVDs
Duration : 52 min 21 s
Bit rate : 27.7 kb/s
Count of elements : 888
Stream size : 10.4 MiB (0%)
Language : Swedish
Default : No
Forced : No

Menu
00:00:00.000 : en:Chapter 1
00:00:35.118 : en:Chapter 2
00:09:07.213 : en:Chapter 3
00:18:10.298 : en:Chapter 4
00:30:02.759 : en:Chapter 5
00:38:51.913 : en:Chapter 6
00:50:28.275 : en:Chapter 7
00:58:53.697 : en:Chapter 8





Chernobyl S01E03


Chernobyl S01E03


Chernobyl S01E03


Chernobyl S01E03


Chernobyl S01E03

All episodes