Featured TV Shows


Chernobyl S01E04

Posted By: Tavaz
1080p (FullHD) / WEBRip IMDb
Chernobyl S01E04

Chernobyl S01E04
WEBRip | MKV | 1920x1080 | English | H264 @ 9120 kbps | E-AC-3 @ 640 kbps | 1 h 6 min | 4.56 GiB
Subtitles: English
Genre: Drama


A dramatization of the true story of one of the worst man-made catastrophes in history, the catastrophic nuclear accident at Chernobyl. A tale of the brave men and women who sacrificed to save Europe from unimaginable disaster.

Chernobyl.S01E04.The.Happiness.of.All.Mankind.1080p.AMZN.WEB-DL.DDP5.1.H.264-NTb.mkv (4.6 GB)



General
Unique ID : 29519628768175918257821276402125046555 (0x16354611264DBBDD85795654BF37031B)
Complete name : ./Chernobyl.S01E04.The.Happiness.of.All.Mankind.1080p.AMZN.WEB-DL.DDP5.1.H.264-NTb.mkv
Format : Matroska
Format version : Version 4 / Version 2
File size : 4.56 GiB
Duration : 1 h 6 min
Overall bit rate : 9 763 kb/s
Encoded date : UTC 2019-05-28 01:30:49
Writing application : mkvmerge v21.0.0 ('Tardigrades Will Inherit The Earth') 64-bit
Writing library : libebml v1.3.5 + libmatroska v1.4.8

Video
ID : 1
Format : AVC
Format/Info : Advanced Video Codec
Format profile : High@L4
Format settings : CABAC / 4 Ref Frames
Format settings, CABAC : Yes
Format settings, RefFrames : 4 frames
Codec ID : V_MPEG4/ISO/AVC
Duration : 1 h 6 min
Bit rate mode : Constant
Bit rate : 9 120 kb/s
Nominal bit rate : 10 000 kb/s
Width : 1 920 pixels
Height : 1 080 pixels
Display aspect ratio : 16:9
Frame rate mode : Constant
Frame rate : 23.976 (24000/1001) FPS
Color space : YUV
Chroma subsampling : 4:2:0
Bit depth : 8 bits
Scan type : Progressive
Bits/(Pixel*Frame) : 0.183
Stream size : 4.26 GiB (93%)
Default : Yes
Forced : No
Color range : Limited
Color primaries : BT.709
Transfer characteristics : BT.709
Matrix coefficients : BT.709

Audio
ID : 2
Format : E-AC-3
Format/Info : Enhanced Audio Coding 3
Format settings, Endianness : Big
Codec ID : A_EAC3
Duration : 1 h 6 min
Bit rate mode : Constant
Bit rate : 640 kb/s
Channel(s) : 6 channels
Channel positions : Front: L C R, Side: L R, LFE
Sampling rate : 48.0 kHz
Frame rate : 187.500 FPS (256 SPF)
Compression mode : Lossy
Delay relative to video : 24 ms
Stream size : 306 MiB (7%)
Language : English
Service kind : Complete Main
Default : Yes
Forced : No

Text #1
ID : 3
Format : UTF-8
Codec ID : S_TEXT/UTF8
Codec ID/Info : UTF-8 Plain Text
Duration : 1 h 6 min
Bit rate : 41 b/s
Count of elements : 686
Stream size : 20.2 KiB (0%)
Language : English
Default : No
Forced : No

Text #2
ID : 4
Format : UTF-8
Codec ID : S_TEXT/UTF8
Codec ID/Info : UTF-8 Plain Text
Duration : 1 h 6 min
Bit rate : 41 b/s
Count of elements : 719
Stream size : 20.5 KiB (0%)
Title : SDH
Language : English
Default : No
Forced : No





Chernobyl S01E04


Chernobyl S01E04


Chernobyl S01E04


Chernobyl S01E04


Chernobyl S01E04

All episodes