Featured TV Shows


Chernobyl S01E05 FINAL

Posted By: Tavaz
1080p (FullHD) / WEBRip IMDb
Chernobyl S01E05 FINAL

Chernobyl S01E05
WEBRip | MKV | 1920x1080 | English | H264 @ 9077 kbps | E-AC-3 @ 640 kbps | 1 h 15 min | 5.15 GiB
Subtitles: English
Genre: Drama


A dramatization of the true story of one of the worst man-made catastrophes in history, the catastrophic nuclear accident at Chernobyl. A tale of the brave men and women who sacrificed to save Europe from unimaginable disaster.

7c5aaeac989649d4988edbcbff03e2c6.mkv (5.1 GB)



General
Unique ID : 200999995677173711618337184201413112051 (0x973730E8A1087728BB8375221FE230F3)
Complete name : ./7c5aaeac989649d4988edbcbff03e2c6.mkv
Format : Matroska
Format version : Version 4 / Version 2
File size : 5.15 GiB
Duration : 1 h 15 min
Overall bit rate : 9 718 kb/s
Encoded date : UTC 2019-06-04 01:35:11
Writing application : mkvmerge v33.1.0 ('Primrose') 64-bit
Writing library : libebml v1.3.7 + libmatroska v1.5.0

Video
ID : 1
Format : AVC
Format/Info : Advanced Video Codec
Format profile : High@L4
Format settings : CABAC / 4 Ref Frames
Format settings, CABAC : Yes
Format settings, RefFrames : 4 frames
Codec ID : V_MPEG4/ISO/AVC
Duration : 1 h 15 min
Bit rate mode : Constant
Bit rate : 9 077 kb/s
Nominal bit rate : 10 000 kb/s
Width : 1 920 pixels
Height : 1 080 pixels
Display aspect ratio : 16:9
Frame rate mode : Constant
Frame rate : 23.976 (24000/1001) FPS
Color space : YUV
Chroma subsampling : 4:2:0
Bit depth : 8 bits
Scan type : Progressive
Bits/(Pixel*Frame) : 0.183
Stream size : 4.81 GiB (93%)
Language : English
Default : Yes
Forced : No
Color range : Limited
Color primaries : BT.709
Transfer characteristics : BT.709
Matrix coefficients : BT.709

Audio
ID : 2
Format : E-AC-3
Format/Info : Enhanced Audio Coding 3
Format settings, Endianness : Big
Codec ID : A_EAC3
Duration : 1 h 15 min
Bit rate mode : Constant
Bit rate : 640 kb/s
Channel(s) : 6 channels
Channel positions : Front: L C R, Side: L R, LFE
Sampling rate : 48.0 kHz
Frame rate : 187.500 FPS (256 SPF)
Compression mode : Lossy
Delay relative to video : 16 ms
Stream size : 347 MiB (7%)
Language : English
Service kind : Complete Main
Default : Yes
Forced : No

Text
ID : 3
Format : UTF-8
Codec ID : S_TEXT/UTF8
Codec ID/Info : UTF-8 Plain Text
Duration : 1 h 15 min
Bit rate : 61 b/s
Count of elements : 993
Stream size : 34.4 KiB (0%)
Language : English
Default : No
Forced : No





Chernobyl S01E05 FINAL


Chernobyl S01E05 FINAL


Chernobyl S01E05 FINAL


Chernobyl S01E05 FINAL


Chernobyl S01E05 FINAL

All episodes