Featured TV Shows


Chicago P.D. S06E09

Posted By: Tavaz
1080p (FullHD) / HDTV IMDb
Chicago P.D. S06E09

Chicago P.D. S06E09
HDTV | MKV | 1920x1080 | French / English | H264 @ 8991 kbps | AAC @ 61 kbps | 38 min 14 s | 2.44 GiB
Subtitles: French
Genre: Crime, Drama


A riveting police drama about the men and women of the Chicago Police Department's District 21 who put it all on the line to serve and protect their community. District 21 is made up of two distinctly different groups: the uniformed cops who patrol the beat and go head-to-head with the city's street crimes and the Intelligence Unit that combats the city's major offenses - organized crime, drug trafficking, high profile murders and beyond.

aa48bb9bb5624b509653f3db97f722f8.mkv (2.4 GB)



General
Unique ID : 310504346414667907188656814893034663593 (0xE998F63C9A8E8081C6F50AF127D46EA9)
Complete name : ./aa48bb9bb5624b509653f3db97f722f8.mkv
Format : Matroska
Format version : Version 4 / Version 2
File size : 2.44 GiB
Duration : 38 min 14 s
Overall bit rate : 9 118 kb/s
Encoded date : UTC 2019-12-11 00:34:23
Writing application : mkvmerge v41.0.0 ('Smarra') 64-bit
Writing library : libebml v1.3.9 + libmatroska v1.5.2

Video
ID : 1
Format : AVC
Format/Info : Advanced Video Codec
Format profile : High@L4
Format settings : CABAC / 4 Ref Frames
Format settings, CABAC : Yes
Format settings, RefFrames : 4 frames
Codec ID : V_MPEG4/ISO/AVC
Duration : 38 min 14 s
Bit rate : 8 991 kb/s
Width : 1 920 pixels
Height : 1 080 pixels
Display aspect ratio : 16:9
Frame rate mode : Constant
Frame rate : 25.000 FPS
Standard : Component
Color space : YUV
Chroma subsampling : 4:2:0
Bit depth : 8 bits
Scan type : MBAFF
Scan type, store method : Interleaved fields
Scan order : Top Field First
Bits/(Pixel*Frame) : 0.173
Stream size : 2.40 GiB (99%)
Default : No
Forced : No
Color range : Limited
Color primaries : BT.709
Transfer characteristics : BT.709
Matrix coefficients : BT.709

Audio #1
ID : 2
Format : AAC
Format/Info : Advanced Audio Codec
Format profile : HE-AAC / LC
Format settings : Explicit
Codec ID : A_AAC-2
Duration : 38 min 14 s
Bit rate : 61.9 kb/s
Channel(s) : 2 channels
Channel positions : Front: L R
Sampling rate : 48.0 kHz / 24.0 kHz
Frame rate : 23.438 FPS (1024 SPF)
Compression mode : Lossy
Stream size : 16.9 MiB (1%)
Title : French
Language : French
Default : Yes
Forced : No

Audio #2
ID : 3
Format : AAC
Format/Info : Advanced Audio Codec
Format profile : HE-AAC / LC
Format settings : Explicit
Codec ID : A_AAC-2
Duration : 38 min 14 s
Bit rate : 61.9 kb/s
Channel(s) : 2 channels
Channel positions : Front: L R
Sampling rate : 48.0 kHz / 24.0 kHz
Frame rate : 23.438 FPS (1024 SPF)
Compression mode : Lossy
Stream size : 16.9 MiB (1%)
Title : English
Language : English
Default : No
Forced : No

Text #1
ID : 4
Format : UTF-8
Codec ID : S_TEXT/UTF8
Codec ID/Info : UTF-8 Plain Text
Duration : 38 min 1 s
Bit rate : 66 b/s
Count of elements : 550
Stream size : 18.6 KiB (0%)
Title : French
Language : French
Default : No
Forced : No

Text #2
ID : 5
Format : UTF-8
Codec ID : S_TEXT/UTF8
Codec ID/Info : UTF-8 Plain Text
Duration : 38 min 1 s
Bit rate : 60 b/s
Count of elements : 648
Stream size : 16.9 KiB (0%)
Title : French (SDH)
Language : French
Default : No
Forced : No





Chicago P.D. S06E09


Chicago P.D. S06E09


Chicago P.D. S06E09


Chicago P.D. S06E09


Chicago P.D. S06E09

All episodes