Featured TV Shows


Cobra Kai S02E10

Posted By: Tavaz
720p (HD) / WEB-DL IMDb
Cobra Kai S02E10

Cobra Kai S02E10


This Karate Kid sequel series picks up 30 years after the events of the 1984 All Valley Karate Tournament and finds Johnny Lawrence on the hunt for redemption by reopening the infamous Cobra Kai karate dojo. This reignites his old rivalry with the successful Daniel LaRusso, who has been working to maintain the balance in his life without mentor Mr. Miyagi.

Cobra.Kai.S02E01.Mercy.2.720p.RED.WEB-DL.AAC5.1.VP9-AJP69.mkv (387.7 MB)
Cobra.Kai.S02E02.Back.in.Black.720p.RED.WEB-DL.AAC5.1.VP9-AJP69.mkv (346.2 MB)
Cobra.Kai.S02E06.Take.a.Right.720p.RED.WEB-DL.AAC5.1.VP9-AJP69.mkv (344.2 MB)
Cobra.Kai.S02E04.The.Moment.of.Truth.720p.RED.WEB-DL.AAC5.1.VP9-AJP69.mkv (352.1 MB)
Cobra.Kai.S02E10.No.Mercy.720p.RED.WEB-DL.AAC5.1.VP9-AJP69.mkv (365.0 MB)
Cobra.Kai.S02E07.Lull.720p.RED.WEB-DL.AAC5.1.VP9-AJP69.mkv (301.0 MB)
Cobra.Kai.S02E08.Glory.of.Love.720p.RED.WEB-DL.AAC5.1.VP9-AJP69.mkv (333.9 MB)
Cobra.Kai.S02E03.Fire.and.Ice.720p.RED.WEB-DL.AAC5.1.VP9-AJP69.mkv (256.6 MB)
Cobra.Kai.S02E09.Pulpo.720p.RED.WEB-DL.AAC5.1.VP9-AJP69.mkv (348.9 MB)
Cobra.Kai.S02E05.All.In.720p.RED.WEB-DL.AAC5.1.VP9-AJP69.mkv (341.8 MB)



General
Unique ID : 242851081748459873325709296611471238565 (0xB6B36AC2E9706FE9591EDDDC13B5A5A5)
Complete name : ./Cobra.Kai.S02E01.Mercy.2.720p.RED.WEB-DL.AAC5.1.VP9-AJP69.mkv
Format : Matroska
Format version : Version 4 / Version 2
File size : 388 MiB
Duration : 35 min 52 s
Overall bit rate : 1 511 kb/s
Encoded date : UTC 2019-04-24 04:16:56
Writing application : mkvmerge v33.1.0 ('Primrose') 64-bit
Writing library : libebml v1.3.7 + libmatroska v1.5.0

Video
ID : 1
Format : VP9
Codec ID : V_VP9
Duration : 35 min 52 s
Bit rate : 1 121 kb/s
Width : 1 280 pixels
Height : 720 pixels
Display aspect ratio : 16:9
Frame rate mode : Constant
Frame rate : 23.976 (24000/1001) FPS
Color space : YUV
Bits/(Pixel*Frame) : 0.051
Stream size : 288 MiB (74%)
Language : English
Default : Yes
Forced : No
Color range : Full
Color primaries : BT.709
Transfer characteristics : BT.709
Matrix coefficients : BT.709

Audio
ID : 2
Format : AAC
Format/Info : Advanced Audio Codec
Format profile : LC
Codec ID : A_AAC-2
Duration : 35 min 52 s
Bit rate : 384 kb/s
Channel(s) : 6 channels
Channel positions : Front: L C R, Side: L R, LFE
Sampling rate : 48.0 kHz
Frame rate : 46.875 FPS (1024 SPF)
Compression mode : Lossy
Stream size : 99.1 MiB (26%)
Language : English
Default : Yes
Forced : No

Text #1
ID : 3
Format : UTF-8
Codec ID : S_TEXT/UTF8
Codec ID/Info : UTF-8 Plain Text
Duration : 35 min 14 s
Bit rate : 75 b/s
Count of elements : 671
Stream size : 19.4 KiB (0%)
Language : English
Default : No
Forced : No

Text #2
ID : 4
Format : UTF-8
Codec ID : S_TEXT/UTF8
Codec ID/Info : UTF-8 Plain Text
Duration : 35 min 18 s
Bit rate : 61 b/s
Count of elements : 558
Stream size : 15.9 KiB (0%)
Language : German
Default : No
Forced : No

Text #3
ID : 5
Format : UTF-8
Codec ID : S_TEXT/UTF8
Codec ID/Info : UTF-8 Plain Text
Duration : 35 min 18 s
Bit rate : 60 b/s
Count of elements : 558
Stream size : 15.6 KiB (0%)
Language : Spanish
Default : No
Forced : No

Text #4
ID : 6
Format : UTF-8
Codec ID : S_TEXT/UTF8
Codec ID/Info : UTF-8 Plain Text
Duration : 35 min 18 s
Bit rate : 62 b/s
Count of elements : 557
Stream size : 16.2 KiB (0%)
Language : French
Default : No
Forced : No

Text #5
ID : 7
Format : UTF-8
Codec ID : S_TEXT/UTF8
Codec ID/Info : UTF-8 Plain Text
Duration : 35 min 19 s
Bit rate : 52 b/s
Count of elements : 519
Stream size : 13.7 KiB (0%)
Language : Japanese
Default : No
Forced : No

Text #6
ID : 8
Format : UTF-8
Codec ID : S_TEXT/UTF8
Codec ID/Info : UTF-8 Plain Text
Duration : 35 min 18 s
Bit rate : 74 b/s
Count of elements : 560
Stream size : 19.1 KiB (0%)
Language : Korean
Default : No
Forced : No

Text #7
ID : 9
Format : UTF-8
Codec ID : S_TEXT/UTF8
Codec ID/Info : UTF-8 Plain Text
Duration : 35 min 18 s
Bit rate : 59 b/s
Count of elements : 558
Stream size : 15.5 KiB (0%)
Title : Brazilian
Language : Portuguese
Default : No
Forced : No

Text #8
ID : 10
Format : UTF-8
Codec ID : S_TEXT/UTF8
Codec ID/Info : UTF-8 Plain Text
Duration : 35 min 18 s
Bit rate : 95 b/s
Count of elements : 559
Stream size : 24.8 KiB (0%)
Language : Russian
Default : No
Forced : No

Text #9
ID : 11
Format : UTF-8
Codec ID : S_TEXT/UTF8
Codec ID/Info : UTF-8 Plain Text
Duration : 35 min 18 s
Bit rate : 173 b/s
Count of elements : 560
Stream size : 45.0 KiB (0%)
Language : Hindi
Default : No
Forced : No





Cobra Kai S02E10


Cobra Kai S02E10


Cobra Kai S02E10


Cobra Kai S02E10


Cobra Kai S02E10

All episodes