Featured TV Shows


Cobra Kai S02E10

Posted By: Tavaz
1080p (FullHD) / WEB-DL IMDb
Cobra Kai S02E10

Cobra Kai S02E10


This Karate Kid sequel series picks up 30 years after the events of the 1984 All Valley Karate Tournament and finds Johnny Lawrence on the hunt for redemption by reopening the infamous Cobra Kai karate dojo. This reignites his old rivalry with the successful Daniel LaRusso, who has been working to maintain the balance in his life without mentor Mr. Miyagi.

976732ae1f304beb94f86d4b39187e68.mkv (594.5 MB)



General
Unique ID : 93223109030638707107188659311665159403 (0x46221E22D6BD6966F607A9CF700B1CEB)
Complete name : ./976732ae1f304beb94f86d4b39187e68.mkv
Format : Matroska
Format version : Version 4 / Version 2
File size : 594 MiB
Duration : 33 min 33 s
Overall bit rate : 2 477 kb/s
Encoded date : UTC 2019-04-24 04:53:21
Writing application : mkvmerge v33.1.0 ('Primrose') 64-bit
Writing library : libebml v1.3.7 + libmatroska v1.5.0

Video
ID : 1
Format : VP9
Codec ID : V_VP9
Duration : 33 min 33 s
Bit rate : 2 087 kb/s
Width : 1 920 pixels
Height : 1 080 pixels
Display aspect ratio : 16:9
Frame rate mode : Constant
Frame rate : 23.976 (24000/1001) FPS
Color space : YUV
Bits/(Pixel*Frame) : 0.042
Stream size : 501 MiB (84%)
Language : English
Default : Yes
Forced : No
Color range : Full
Color primaries : BT.709
Transfer characteristics : BT.709
Matrix coefficients : BT.709

Audio
ID : 2
Format : AAC
Format/Info : Advanced Audio Codec
Format profile : LC
Codec ID : A_AAC-2
Duration : 33 min 33 s
Bit rate : 384 kb/s
Channel(s) : 6 channels
Channel positions : Front: L C R, Side: L R, LFE
Sampling rate : 48.0 kHz
Frame rate : 46.875 FPS (1024 SPF)
Compression mode : Lossy
Stream size : 92.7 MiB (16%)
Language : English
Default : Yes
Forced : No

Text #1
ID : 3
Format : UTF-8
Codec ID : S_TEXT/UTF8
Codec ID/Info : UTF-8 Plain Text
Duration : 31 min 25 s
Bit rate : 56 b/s
Count of elements : 496
Stream size : 13.1 KiB (0%)
Language : English
Default : No
Forced : No

Text #2
ID : 4
Format : UTF-8
Codec ID : S_TEXT/UTF8
Codec ID/Info : UTF-8 Plain Text
Duration : 31 min 30 s
Bit rate : 43 b/s
Count of elements : 343
Stream size : 10.0 KiB (0%)
Language : German
Default : No
Forced : No

Text #3
ID : 5
Format : UTF-8
Codec ID : S_TEXT/UTF8
Codec ID/Info : UTF-8 Plain Text
Duration : 31 min 30 s
Bit rate : 42 b/s
Count of elements : 343
Stream size : 9.71 KiB (0%)
Language : Spanish
Default : No
Forced : No

Text #4
ID : 6
Format : UTF-8
Codec ID : S_TEXT/UTF8
Codec ID/Info : UTF-8 Plain Text
Duration : 31 min 30 s
Bit rate : 43 b/s
Count of elements : 342
Stream size : 9.95 KiB (0%)
Language : French
Default : No
Forced : No

Text #5
ID : 7
Format : UTF-8
Codec ID : S_TEXT/UTF8
Codec ID/Info : UTF-8 Plain Text
Duration : 31 min 30 s
Bit rate : 36 b/s
Count of elements : 326
Stream size : 8.33 KiB (0%)
Language : Japanese
Default : No
Forced : No

Text #6
ID : 8
Format : UTF-8
Codec ID : S_TEXT/UTF8
Codec ID/Info : UTF-8 Plain Text
Duration : 31 min 30 s
Bit rate : 47 b/s
Count of elements : 347
Stream size : 10.9 KiB (0%)
Language : Korean
Default : No
Forced : No

Text #7
ID : 9
Format : UTF-8
Codec ID : S_TEXT/UTF8
Codec ID/Info : UTF-8 Plain Text
Duration : 31 min 30 s
Bit rate : 40 b/s
Count of elements : 343
Stream size : 9.45 KiB (0%)
Title : Brazilian
Language : Portuguese
Default : No
Forced : No

Text #8
ID : 10
Format : UTF-8
Codec ID : S_TEXT/UTF8
Codec ID/Info : UTF-8 Plain Text
Duration : 31 min 34 s
Bit rate : 75 b/s
Count of elements : 347
Stream size : 17.4 KiB (0%)
Language : Russian
Default : No
Forced : No

Text #9
ID : 11
Format : UTF-8
Codec ID : S_TEXT/UTF8
Codec ID/Info : UTF-8 Plain Text
Duration : 31 min 30 s
Bit rate : 121 b/s
Count of elements : 347
Stream size : 28.0 KiB (0%)
Language : Hindi
Default : No
Forced : No





Cobra Kai S02E10


Cobra Kai S02E10


Cobra Kai S02E10


Cobra Kai S02E10


Cobra Kai S02E10

All episodes