Corey White's Roadmap to Paradise S01E03

Posted By: Tavaz
720p (HD) / HDTV IMDb
Corey White's Roadmap to Paradise S01E03

Corey White's Roadmap to Paradise S01E03
HDTV | MKV | 1280x720 | English | H264 @ 1693 kbps | MPEG Audio @ 256 kbps | 15 min 9 s | 211 MiB
Genre: Comedy

Under-qualified comedian Corey White tries to solve the biggest problems facing everyday Australians. Watch Corey's collision course with conventional wisdom as he tries to fix things his way.

7a1577307bd344fcbb0c85b07bffcab9.mkv (211.5 MB)



General
Unique ID : 267542087021362626035735093594122383295 (0xC946BB4F3CFE2C22009A48A162406FBF)
Complete name : ./7a1577307bd344fcbb0c85b07bffcab9.mkv
Format : Matroska
Format version : Version 2
File size : 211 MiB
Duration : 15 min 9 s
Overall bit rate : 1 951 kb/s
Encoded date : UTC 2018-05-18 05:56:30
Writing application : mkvmerge v19.0.0 ('Brave Captain') 64-bit
Writing library : libebml v1.3.5 + libmatroska v1.4.8

Video
ID : 1
Format : AVC
Format/Info : Advanced Video Codec
Format profile : High@L4.1
Format settings : CABAC / 5 Ref Frames
Format settings, CABAC : Yes
Format settings, RefFrames : 5 frames
Codec ID : V_MPEG4/ISO/AVC
Duration : 15 min 9 s
Bit rate : 1 693 kb/s
Width : 1 280 pixels
Height : 720 pixels
Display aspect ratio : 16:9
Frame rate mode : Constant
Frame rate : 25.000 FPS
Color space : YUV
Chroma subsampling : 4:2:0
Bit depth : 8 bits
Scan type : Progressive
Bits/(Pixel*Frame) : 0.074
Stream size : 184 MiB (87%)
Writing library : x264 core 155 r2901 7d0ff22
Encoding settings : cabac=1 / ref=5 / deblock=1:0:0 / analyse=0x3:0x113 / me=hex / subme=8 / psy=1 / psy_rd=1.00:0.00 / mixed_ref=1 / me_range=16 / chroma_me=1 / trellis=2 / 8x8dct=1 / cqm=0 / deadzone=21,11 / fast_pskip=1 / chroma_qp_offset=-2 / threads=12 / lookahead_threads=2 / sliced_threads=0 / nr=0 / decimate=1 / interlaced=0 / bluray_compat=0 / constrained_intra=0 / bframes=3 / b_pyramid=2 / b_adapt=1 / b_bias=0 / direct=3 / weightb=1 / open_gop=0 / weightp=2 / keyint=250 / keyint_min=25 / scenecut=40 / intra_refresh=0 / rc_lookahead=50 / rc=crf / mbtree=1 / crf=19.0 / qcomp=0.60 / qpmin=0 / qpmax=69 / qpstep=4 / vbv_maxrate=62500 / vbv_bufsize=78125 / crf_max=0.0 / nal_hrd=none / filler=0 / ip_ratio=1.40 / aq=1:1.00
Default : Yes
Forced : No

Audio
ID : 2
Format : MPEG Audio
Format version : Version 1
Format profile : Layer 2
Codec ID : A_MPEG/L2
Codec ID/Hint : MP2
Duration : 15 min 9 s
Bit rate mode : Constant
Bit rate : 256 kb/s
Channel(s) : 2 channels
Sampling rate : 48.0 kHz
Frame rate : 41.667 FPS (1152 SPF)
Compression mode : Lossy
Stream size : 27.7 MiB (13%)
Default : Yes
Forced : No





Corey White's Roadmap to Paradise S01E03


Corey White's Roadmap to Paradise S01E03


Corey White's Roadmap to Paradise S01E03


Corey White's Roadmap to Paradise S01E03

All episodes