Featured TV Shows


Deadwood S03E00

Posted By: Tavaz
1080p (FullHD) / WEBRip IMDb
Deadwood S03E00

Deadwood S03E00
WEBRip | MKV | 1920x1080 | English | H264 @ 12071 kbps | E-AC-3 @ 640 kbps | 1 h 49 min | 9.77 GiB
Subtitles: English
Genre: Crime, Drama, Western


The story of the early days of Deadwood, South Dakota; woven around actual historic events with most of the main characters based on real people. Deadwood starts as a gold mining camp and gradually turns from a lawless wild-west community into an organized wild-west civilized town. The story focuses on the real-life characters Seth Bullock and Al Swearengen.

Deadwood.S03E00.Deadwood.The.Movie.iNTERNAL.1080p.WEB.H264.1-MEMENTO-Obfuscated=6b8199972143d7cab807e91dfa4f35d7971272be.part1.rar (5.1 GB)
Deadwood.S03E00.Deadwood.The.Movie.iNTERNAL.1080p.WEB.H264.1-MEMENTO-Obfuscated=6b8199972143d7cab807e91dfa4f35d7971272be.part2.rar (4.7 GB)



General
Unique ID : 256082357311945078221896984357341422663 (0xC0A7AB033426090CF22FA9F3037EE447)
Complete name : ./8bcb2b584d49422b9041bebf04ce773e.mkv
Format : Matroska
Format version : Version 4 / Version 2
File size : 9.77 GiB
Duration : 1 h 49 min
Overall bit rate : 12.7 Mb/s
Encoded date : UTC 2019-06-01 00:09:10
Writing application : mkvmerge v33.1.0 ('Primrose') 64-bit
Writing library : libebml v1.3.7 + libmatroska v1.5.0

Video
ID : 1
Format : AVC
Format/Info : Advanced Video Codec
Format profile : High@L4
Format settings : CABAC / 4 Ref Frames
Format settings, CABAC : Yes
Format settings, RefFrames : 4 frames
Codec ID : V_MPEG4/ISO/AVC
Duration : 1 h 49 min
Bit rate : 12.1 Mb/s
Width : 1 920 pixels
Height : 1 080 pixels
Display aspect ratio : 16:9
Frame rate mode : Constant
Frame rate : 23.976 (24000/1001) FPS
Color space : YUV
Chroma subsampling : 4:2:0
Bit depth : 8 bits
Scan type : Progressive
Bits/(Pixel*Frame) : 0.243
Stream size : 9.27 GiB (95%)
Language : English
Default : Yes
Forced : No
Color range : Limited
Color primaries : BT.709
Transfer characteristics : BT.709
Matrix coefficients : BT.709

Audio
ID : 2
Format : E-AC-3
Format/Info : Enhanced Audio Coding 3
Format settings, Endianness : Big
Codec ID : A_EAC3
Duration : 1 h 49 min
Bit rate mode : Constant
Bit rate : 640 kb/s
Channel(s) : 6 channels
Channel positions : Front: L C R, Side: L R, LFE
Sampling rate : 48.0 kHz
Frame rate : 187.500 FPS (256 SPF)
Compression mode : Lossy
Delay relative to video : 29 ms
Stream size : 503 MiB (5%)
Language : English
Service kind : Complete Main
Default : Yes
Forced : No

Text
ID : 3
Format : UTF-8
Codec ID : S_TEXT/UTF8
Codec ID/Info : UTF-8 Plain Text
Duration : 1 h 49 min
Bit rate : 63 b/s
Count of elements : 1904
Stream size : 50.8 KiB (0%)
Language : English
Default : No
Forced : No





Deadwood S03E00


Deadwood S03E00


Deadwood S03E00


Deadwood S03E00


Deadwood S03E00

All episodes