Featured TV Shows


Dirk Gently's Holistic Detective Agency S01E02

Posted By: Tavaz
1080p (FullHD) / WEBRip IMDb
Dirk Gently's Holistic Detective Agency S01E02

Dirk Gently's Holistic Detective Agency S01E02
WEBRip | MKV | 1920x1080 | English / Spanish / Spanish / French / German / Italian / Portuguese / Polish / Turkish / Japanese / English | H264 @ 2852 kbps | E-AC-3 @ 128 kbps | 42 min 14 s | 1.26 GiB
Subtitles: Swedish, Turkish, Romanian, Dutch, Korean, Danish, Vietnamese, French, Norwegian, Thai, Finnish, Spanish, Greek, English, Italian, Portuguese, Chinese, German, Japanese, Hebrew, Polish, Arabic
Genre: Comedy


A comedic thriller that follows the bizarre adventures of eccentric “holistic” detective Dirk Gently and his reluctant assistant Todd. An adaptation of Douglas Adams’ wildly successful comic novels.

Dirk.Gentlys.Holistic.Detective.Agency.S01E02.iNTERNAL.MULTi.1080p.WEB.x264-METALLIKA.mkv (1.3 GB)



General
Unique ID : 277576341522083514286236021479075646003 (0xD0D34240A821739CF414515A65A28A33)
Complete name : ./Dirk.Gentlys.Holistic.Detective.Agency.S01E02.iNTERNAL.MULTi.1080p.WEB.x264-METALLIKA.mkv
Format : Matroska
Format version : Version 4 / Version 2
File size : 1.26 GiB
Duration : 42 min 14 s
Overall bit rate mode : Variable
Overall bit rate : 4 268 kb/s
Encoded date : UTC 2019-07-17 05:24:09
Writing application : mkvmerge v25.0.0 ('Prog Noir') 32-bit
Writing library : libebml v1.3.6 + libmatroska v1.4.9

Video
ID : 1
Format : AVC
Format/Info : Advanced Video Codec
Format profile : High@L4
Format settings : CABAC / 4 Ref Frames
Format settings, CABAC : Yes
Format settings, RefFrames : 4 frames
Codec ID : V_MPEG4/ISO/AVC
Duration : 42 min 14 s
Bit rate mode : Variable
Bit rate : 2 852 kb/s
Maximum bit rate : 20.0 Mb/s
Width : 1 920 pixels
Height : 1 080 pixels
Display aspect ratio : 16:9
Frame rate mode : Constant
Frame rate : 23.976 (24000/1001) FPS
Color space : YUV
Chroma subsampling : 4:2:0
Bit depth : 8 bits
Scan type : Progressive
Bits/(Pixel*Frame) : 0.057
Stream size : 862 MiB (67%)
Writing library : x264 core 148 r2714 2daf636
Encoding settings : cabac=1 / ref=4 / deblock=1:0:0 / analyse=0x3:0x111 / me=umh / subme=10 / psy=1 / psy_rd=1.00:0.00 / mixed_ref=1 / me_range=120 / chroma_me=1 / trellis=2 / 8x8dct=1 / cqm=0 / deadzone=21,11 / fast_pskip=1 / chroma_qp_offset=-2 / threads=8 / lookahead_threads=2 / sliced_threads=0 / nr=0 / decimate=1 / interlaced=0 / bluray_compat=0 / stitchable=1 / constrained_intra=0 / bframes=16 / b_pyramid=2 / b_adapt=2 / b_bias=0 / direct=3 / weightb=1 / open_gop=0 / weightp=2 / keyint=240 / keyint_min=121 / scenecut=0 / intra_refresh=0 / rc_lookahead=240 / rc=crf / mbtree=1 / crf=24.0 / qcomp=0.50 / qpmin=6 / qpmax=51 / qpstep=4 / vbv_maxrate=20000 / vbv_bufsize=25000 / crf_max=0.0 / nal_hrd=vbr / filler=0 / ip_ratio=1.40 / aq=1:0.80
Default : Yes
Forced : No

Audio #1
ID : 2
Format : E-AC-3
Format/Info : Enhanced Audio Coding 3
Format settings, Endianness : Big
Codec ID : A_EAC3
Duration : 42 min 14 s
Bit rate mode : Constant
Bit rate : 128 kb/s
Channel(s) : 2 channels
Channel positions : Front: L R
Sampling rate : 48.0 kHz
Frame rate : 187.500 FPS (256 SPF)
Compression mode : Lossy
Stream size : 38.7 MiB (3%)
Title : English
Language : English
Service kind : Complete Main
Default : Yes
Forced : No

Audio #2
ID : 3
Format : E-AC-3
Format/Info : Enhanced Audio Coding 3
Format settings, Endianness : Big
Codec ID : A_EAC3
Duration : 42 min 14 s
Bit rate mode : Constant
Bit rate : 128 kb/s
Channel(s) : 2 channels
Channel positions : Front: L R
Sampling rate : 48.0 kHz
Frame rate : 187.500 FPS (256 SPF)
Compression mode : Lossy
Stream size : 38.7 MiB (3%)
Title : Castilian
Language : Spanish
Service kind : Complete Main
Default : No
Forced : No

Audio #3
ID : 4
Format : E-AC-3
Format/Info : Enhanced Audio Coding 3
Format settings, Endianness : Big
Codec ID : A_EAC3
Duration : 42 min 14 s
Bit rate mode : Constant
Bit rate : 128 kb/s
Channel(s) : 2 channels
Channel positions : Front: L R
Sampling rate : 48.0 kHz
Frame rate : 187.500 FPS (256 SPF)
Compression mode : Lossy
Stream size : 38.7 MiB (3%)
Title : Spanish
Language : Spanish
Service kind : Complete Main
Default : No
Forced : No

Audio #4
ID : 5
Format : E-AC-3
Format/Info : Enhanced Audio Coding 3
Format settings, Endianness : Big
Codec ID : A_EAC3
Duration : 42 min 14 s
Bit rate mode : Constant
Bit rate : 128 kb/s
Channel(s) : 2 channels
Channel positions : Front: L R
Sampling rate : 48.0 kHz
Frame rate : 187.500 FPS (256 SPF)
Compression mode : Lossy
Stream size : 38.7 MiB (3%)
Title : French
Language : French
Service kind : Complete Main
Default : No
Forced : No

Audio #5
ID : 6
Format : E-AC-3
Format/Info : Enhanced Audio Coding 3
Format settings, Endianness : Big
Codec ID : A_EAC3
Duration : 42 min 14 s
Bit rate mode : Constant
Bit rate : 128 kb/s
Channel(s) : 2 channels
Channel positions : Front: L R
Sampling rate : 48.0 kHz
Frame rate : 187.500 FPS (256 SPF)
Compression mode : Lossy
Stream size : 38.7 MiB (3%)
Title : German
Language : German
Service kind : Complete Main
Default : No
Forced : No

Audio #6
ID : 7
Format : E-AC-3
Format/Info : Enhanced Audio Coding 3
Format settings, Endianness : Big
Codec ID : A_EAC3
Duration : 42 min 14 s
Bit rate mode : Constant
Bit rate : 128 kb/s
Channel(s) : 2 channels
Channel positions : Front: L R
Sampling rate : 48.0 kHz
Frame rate : 187.500 FPS (256 SPF)
Compression mode : Lossy
Stream size : 38.7 MiB (3%)
Title : Italian
Language : Italian
Service kind : Complete Main
Default : No
Forced : No

Audio #7
ID : 8
Format : E-AC-3
Format/Info : Enhanced Audio Coding 3
Format settings, Endianness : Big
Codec ID : A_EAC3
Duration : 42 min 14 s
Bit rate mode : Constant
Bit rate : 128 kb/s
Channel(s) : 2 channels
Channel positions : Front: L R
Sampling rate : 48.0 kHz
Frame rate : 187.500 FPS (256 SPF)
Compression mode : Lossy
Stream size : 38.7 MiB (3%)
Title : Brazilian Portuguese
Language : Portuguese
Service kind : Complete Main
Default : No
Forced : No

Audio #8
ID : 9
Format : E-AC-3
Format/Info : Enhanced Audio Coding 3
Format settings, Endianness : Big
Codec ID : A_EAC3
Duration : 42 min 14 s
Bit rate mode : Constant
Bit rate : 128 kb/s
Channel(s) : 2 channels
Channel positions : Front: L R
Sampling rate : 48.0 kHz
Frame rate : 187.500 FPS (256 SPF)
Compression mode : Lossy
Stream size : 38.7 MiB (3%)
Title : Polish
Language : Polish
Service kind : Complete Main
Default : No
Forced : No

Audio #9
ID : 10
Format : E-AC-3
Format/Info : Enhanced Audio Coding 3
Format settings, Endianness : Big
Codec ID : A_EAC3
Duration : 42 min 14 s
Bit rate mode : Constant
Bit rate : 128 kb/s
Channel(s) : 2 channels
Channel positions : Front: L R
Sampling rate : 48.0 kHz
Frame rate : 187.500 FPS (256 SPF)
Compression mode : Lossy
Stream size : 38.7 MiB (3%)
Title : Turkish
Language : Turkish
Service kind : Complete Main
Default : No
Forced : No

Audio #10
ID : 11
Format : E-AC-3
Format/Info : Enhanced Audio Coding 3
Format settings, Endianness : Big
Codec ID : A_EAC3
Duration : 42 min 14 s
Bit rate mode : Constant
Bit rate : 128 kb/s
Channel(s) : 2 channels
Channel positions : Front: L R
Sampling rate : 48.0 kHz
Frame rate : 187.500 FPS (256 SPF)
Compression mode : Lossy
Stream size : 38.7 MiB (3%)
Title : Japanese
Language : Japanese
Service kind : Complete Main
Default : No
Forced : No

Audio #11
ID : 12
Format : E-AC-3
Format/Info : Enhanced Audio Coding 3
Format settings, Endianness : Big
Codec ID : A_EAC3
Duration : 42 min 14 s
Bit rate mode : Constant
Bit rate : 128 kb/s
Channel(s) : 2 channels
Channel positions : Front: L R
Sampling rate : 48.0 kHz
Frame rate : 187.500 FPS (256 SPF)
Compression mode : Lossy
Stream size : 38.7 MiB (3%)
Title : English (Audio Description)
Language : English
Service kind : Complete Main
Default : No
Forced : No

Text #1
ID : 13
Format : UTF-8
Codec ID : S_TEXT/UTF8
Codec ID/Info : UTF-8 Plain Text
Duration : 41 min 1 s
Bit rate : 74 b/s
Count of elements : 623
Stream size : 22.3 KiB (0%)
Title : English [SDH]
Language : English
Default : No
Forced : No

Text #2
ID : 14
Format : UTF-8
Codec ID : S_TEXT/UTF8
Codec ID/Info : UTF-8 Plain Text
Duration : 41 min 37 s
Bit rate : 0 b/s
Count of elements : 6
Stream size : 111 Bytes (0%)
Title : Castilian [Forced]
Language : Spanish
Default : No
Forced : Yes

Text #3
ID : 15
Format : UTF-8
Codec ID : S_TEXT/UTF8
Codec ID/Info : UTF-8 Plain Text
Duration : 41 min 43 s
Bit rate : 66 b/s
Count of elements : 576
Stream size : 20.3 KiB (0%)
Title : Castilian [Full]
Language : Spanish
Default : No
Forced : No

Text #4
ID : 16
Format : UTF-8
Codec ID : S_TEXT/UTF8
Codec ID/Info : UTF-8 Plain Text
Duration : 41 min 47 s
Bit rate : 0 b/s
Count of elements : 5
Stream size : 79.0 Bytes (0%)
Title : Spanish [Forced]
Language : Spanish
Default : No
Forced : Yes

Text #5
ID : 17
Format : UTF-8
Codec ID : S_TEXT/UTF8
Codec ID/Info : UTF-8 Plain Text
Duration : 41 min 47 s
Bit rate : 68 b/s
Count of elements : 586
Stream size : 20.8 KiB (0%)
Title : Spanish [Full]
Language : Spanish
Default : No
Forced : No

Text #6
ID : 18
Format : UTF-8
Codec ID : S_TEXT/UTF8
Codec ID/Info : UTF-8 Plain Text
Duration : 41 min 47 s
Bit rate : 0 b/s
Count of elements : 5
Stream size : 93.0 Bytes (0%)
Title : French [Forced]
Language : French
Default : No
Forced : Yes

Text #7
ID : 19
Format : UTF-8
Codec ID : S_TEXT/UTF8
Codec ID/Info : UTF-8 Plain Text
Duration : 41 min 47 s
Bit rate : 67 b/s
Count of elements : 565
Stream size : 20.5 KiB (0%)
Title : French [Full]
Language : French
Default : No
Forced : No

Text #8
ID : 20
Format : UTF-8
Codec ID : S_TEXT/UTF8
Codec ID/Info : UTF-8 Plain Text
Duration : 41 min 47 s
Bit rate : 0 b/s
Count of elements : 6
Stream size : 127 Bytes (0%)
Title : German [Forced]
Language : German
Default : No
Forced : Yes

Text #9
ID : 21
Format : UTF-8
Codec ID : S_TEXT/UTF8
Codec ID/Info : UTF-8 Plain Text
Duration : 41 min 47 s
Bit rate : 62 b/s
Count of elements : 545
Stream size : 19.2 KiB (0%)
Title : German [Full]
Language : German
Default : No
Forced : No

Text #10
ID : 22
Format : UTF-8
Codec ID : S_TEXT/UTF8
Codec ID/Info : UTF-8 Plain Text
Duration : 41 min 47 s
Bit rate : 0 b/s
Count of elements : 5
Stream size : 90.0 Bytes (0%)
Title : Italian [Forced]
Language : Italian
Default : No
Forced : Yes

Text #11
ID : 23
Format : UTF-8
Codec ID : S_TEXT/UTF8
Codec ID/Info : UTF-8 Plain Text
Duration : 41 min 47 s
Bit rate : 70 b/s
Count of elements : 575
Stream size : 21.5 KiB (0%)
Title : Italian [Full]
Language : Italian
Default : No
Forced : No

Text #12
ID : 24
Format : UTF-8
Codec ID : S_TEXT/UTF8
Codec ID/Info : UTF-8 Plain Text
Duration : 41 min 47 s
Bit rate : 65 b/s
Count of elements : 551
Stream size : 20.1 KiB (0%)
Title : Portuguese [Full]
Language : Portuguese
Default : No
Forced : No

Text #13
ID : 25
Format : UTF-8
Codec ID : S_TEXT/UTF8
Codec ID/Info : UTF-8 Plain Text
Duration : 41 min 47 s
Bit rate : 0 b/s
Count of elements : 7
Stream size : 145 Bytes (0%)
Title : Brazilian Portuguese [Forced]
Language : Portuguese
Default : No
Forced : Yes

Text #14
ID : 26
Format : UTF-8
Codec ID : S_TEXT/UTF8
Codec ID/Info : UTF-8 Plain Text
Duration : 41 min 47 s
Bit rate : 64 b/s
Count of elements : 574
Stream size : 19.9 KiB (0%)
Title : Brazilian Portuguese [Full]
Language : Portuguese
Default : No
Forced : No

Text #15
ID : 27
Format : UTF-8
Codec ID : S_TEXT/UTF8
Codec ID/Info : UTF-8 Plain Text
Duration : 40 min 53 s
Bit rate : 60 b/s
Count of elements : 571
Stream size : 18.1 KiB (0%)
Title : Polish [Full]
Language : Polish
Default : No
Forced : No

Text #16
ID : 28
Format : UTF-8
Codec ID : S_TEXT/UTF8
Codec ID/Info : UTF-8 Plain Text
Duration : 41 min 47 s
Bit rate : 0 b/s
Count of elements : 5
Stream size : 98.0 Bytes (0%)
Title : Turkish [Forced]
Language : Turkish
Default : No
Forced : Yes

Text #17
ID : 29
Format : UTF-8
Codec ID : S_TEXT/UTF8
Codec ID/Info : UTF-8 Plain Text
Duration : 41 min 47 s
Bit rate : 62 b/s
Count of elements : 568
Stream size : 19.1 KiB (0%)
Title : Turkish [Full]
Language : Turkish
Default : No
Forced : No

Text #18
ID : 30
Format : UTF-8
Codec ID : S_TEXT/UTF8
Codec ID/Info : UTF-8 Plain Text
Duration : 41 min 47 s
Bit rate : 64 b/s
Count of elements : 574
Stream size : 19.7 KiB (0%)
Title : Swedish [Full]
Language : Swedish
Default : No
Forced : No

Text #19
ID : 31
Format : UTF-8
Codec ID : S_TEXT/UTF8
Codec ID/Info : UTF-8 Plain Text
Duration : 41 min 47 s
Bit rate : 62 b/s
Count of elements : 571
Stream size : 19.0 KiB (0%)
Title : Danish [Full]
Language : Danish
Default : No
Forced : No

Text #20
ID : 32
Format : UTF-8
Codec ID : S_TEXT/UTF8
Codec ID/Info : UTF-8 Plain Text
Duration : 41 min 47 s
Bit rate : 53 b/s
Count of elements : 539
Stream size : 16.3 KiB (0%)
Title : Finnish [Full]
Language : Finnish
Default : No
Forced : No

Text #21
ID : 33
Format : UTF-8
Codec ID : S_TEXT/UTF8
Codec ID/Info : UTF-8 Plain Text
Duration : 41 min 47 s
Bit rate : 62 b/s
Count of elements : 557
Stream size : 19.3 KiB (0%)
Title : Dutch [Full]
Language : Dutch
Default : No
Forced : No

Text #22
ID : 34
Format : UTF-8
Codec ID : S_TEXT/UTF8
Codec ID/Info : UTF-8 Plain Text
Duration : 41 min 47 s
Bit rate : 65 b/s
Count of elements : 564
Stream size : 20.0 KiB (0%)
Title : Norwegian [Full]
Language : Norwegian
Default : No
Forced : No

Text #23
ID : 35
Format : UTF-8
Codec ID : S_TEXT/UTF8
Codec ID/Info : UTF-8 Plain Text
Duration : 41 min 18 s
Bit rate : 123 b/s
Count of elements : 573
Stream size : 37.2 KiB (0%)
Title : Greek [Full]
Language : Greek
Default : No
Forced : No

Text #24
ID : 36
Format : UTF-8
Codec ID : S_TEXT/UTF8
Codec ID/Info : UTF-8 Plain Text
Duration : 41 min 47 s
Bit rate : 92 b/s
Count of elements : 572
Stream size : 28.2 KiB (0%)
Title : Hebrew [Full]
Language : Hebrew
Default : No
Forced : No

Text #25
ID : 37
Format : UTF-8
Codec ID : S_TEXT/UTF8
Codec ID/Info : UTF-8 Plain Text
Duration : 41 min 47 s
Bit rate : 105 b/s
Count of elements : 578
Stream size : 32.3 KiB (0%)
Title : Arabic [Full]
Language : Arabic
Default : No
Forced : No

Text #26
ID : 38
Format : UTF-8
Codec ID : S_TEXT/UTF8
Codec ID/Info : UTF-8 Plain Text
Duration : 40 min 53 s
Bit rate : 68 b/s
Count of elements : 575
Stream size : 20.4 KiB (0%)
Title : Romanian [Full]
Language : Romanian
Default : No
Forced : No

Text #27
ID : 39
Format : UTF-8
Codec ID : S_TEXT/UTF8
Codec ID/Info : UTF-8 Plain Text
Duration : 41 min 47 s
Bit rate : 85 b/s
Count of elements : 576
Stream size : 26.2 KiB (0%)
Title : Vietnamese [Full]
Language : Vietnamese
Default : No
Forced : No

Text #28
ID : 40
Format : UTF-8
Codec ID : S_TEXT/UTF8
Codec ID/Info : UTF-8 Plain Text
Duration : 41 min 47 s
Bit rate : 148 b/s
Count of elements : 577
Stream size : 45.5 KiB (0%)
Title : Thai [Full]
Language : Thai
Default : No
Forced : No

Text #29
ID : 41
Format : UTF-8
Codec ID : S_TEXT/UTF8
Codec ID/Info : UTF-8 Plain Text
Duration : 41 min 47 s
Bit rate : 74 b/s
Count of elements : 578
Stream size : 22.7 KiB (0%)
Title : Korean [Full]
Language : Korean
Default : No
Forced : No

Text #30
ID : 42
Format : UTF-8
Codec ID : S_TEXT/UTF8
Codec ID/Info : UTF-8 Plain Text
Duration : 41 min 47 s
Bit rate : 57 b/s
Count of elements : 576
Stream size : 17.5 KiB (0%)
Title : Chinese (Simplified) [Full]
Language : Chinese
Default : No
Forced : No

Text #31
ID : 43
Format : UTF-8
Codec ID : S_TEXT/UTF8
Codec ID/Info : UTF-8 Plain Text
Duration : 41 min 47 s
Bit rate : 61 b/s
Count of elements : 578
Stream size : 18.7 KiB (0%)
Title : Chinese (Traditional) [Full]
Language : Chinese
Default : No
Forced : No

Text #32
ID : 44
Format : UTF-8
Codec ID : S_TEXT/UTF8
Codec ID/Info : UTF-8 Plain Text
Duration : 23 min 35 s
Bit rate : 0 b/s
Count of elements : 6
Stream size : 121 Bytes (0%)
Title : Japanese [Forced]
Language : Japanese
Default : No
Forced : Yes

Text #33
ID : 45
Format : UTF-8
Codec ID : S_TEXT/UTF8
Codec ID/Info : UTF-8 Plain Text
Duration : 41 min 37 s
Bit rate : 49 b/s
Count of elements : 730
Stream size : 15.1 KiB (0%)
Title : Japanese [Full]
Language : Japanese
Default : No
Forced : No





Dirk Gently's Holistic Detective Agency S01E02


Dirk Gently's Holistic Detective Agency S01E02


Dirk Gently's Holistic Detective Agency S01E02


Dirk Gently's Holistic Detective Agency S01E02


Dirk Gently's Holistic Detective Agency S01E02

All episodes