Featured TV Shows


Disasters at Sea S01E01

Posted By: Tavaz
720p (HD) / WEBRip IMDb
Disasters at Sea S01E01

Disasters at Sea S01E01
WEBRip | MKV | 1280x720 | English | H264 @ 3200 kbps | AC-3 @ 192 kbps | 44 min 0 s | 1.04 GiB
Subtitles: English
Genre: Dokumenter


Disasters at Sea is a documentary series about the most mysterious and unexpected marine disasters in recent history, recreated through the visceral first-hand accounts of seamen and women on their worst day, and for some, their finest hour. Grounded in fact, each episode unfolds as a mystery, providing a suspenseful journey into the little known world of life at sea, and a tribute to the working men and women who sacrificed their lives for it all. A Northwest Pacific typhoon that sunk a cargo ship and launched a twenty-year investigation. An icy fight for survival on an Antarctic cruise. A simple turn that inexplicably capsized a cargo ship in Norway. Shipwrecks of massive scale and significance have rocked the world, perplexed investigators, and changed the shipping industry. Revisit and reexamine some of the most mysterious and harrowing sea disasters of the last 50 years.

disasters.at.sea.s01e01.trapped.in.typhoon.alley.real.720p.web.h264-underbelly.mkv (1.0 GB)



General
Unique ID : 0 (0x0)
Complete name : ./disasters.at.sea.s01e01.trapped.in.typhoon.alley.real.720p.web.h264-underbelly.mkv
Format : Matroska
Format version : Version 4 / Version 2
File size : 1.04 GiB
Duration : 44 min 0 s
Overall bit rate : 3 393 kb/s
Encoded date : UTC 2010-02-22 21:41:29
Writing application : no_variable_data
Writing library : no_variable_data

Video
ID : 1
Format : AVC
Format/Info : Advanced Video Codec
Format profile : Main@L3.2
Format settings : CABAC / 2 Ref Frames
Format settings, CABAC : Yes
Format settings, RefFrames : 2 frames
Codec ID : V_MPEG4/ISO/AVC
Duration : 44 min 0 s
Bit rate mode : Constant
Bit rate : 3 200 kb/s
Width : 1 280 pixels
Height : 720 pixels
Display aspect ratio : 16:9
Frame rate mode : Constant
Frame rate : 29.970 (30000/1001) FPS
Color space : YUV
Chroma subsampling : 4:2:0
Bit depth : 8 bits
Scan type : Progressive
Bits/(Pixel*Frame) : 0.116
Stream size : 986 MiB (92%)
Default : Yes
Forced : No
Statistics Tags Issue : no_variable_data 1970-01-01 00:00:00 / no_variable_data 2010-02-22 21:41:29
FromStats_BitRate : 3198368
FromStats_Duration : 00:44:00.171000000
FromStats_FrameCount : 79126
FromStats_StreamSize : 1055529847

Audio
ID : 2
Format : AC-3
Format/Info : Audio Coding 3
Format settings, Endianness : Big
Codec ID : A_AC3
Duration : 44 min 0 s
Bit rate mode : Constant
Bit rate : 192 kb/s
Channel(s) : 2 channels
Channel positions : Front: L R
Sampling rate : 48.0 kHz
Frame rate : 31.250 FPS (1536 SPF)
Bit depth : 16 bits
Compression mode : Lossy
Stream size : 60.4 MiB (6%)
Service kind : Complete Main
Default : Yes
Forced : No
Statistics Tags Issue : no_variable_data 1970-01-01 00:00:00 / no_variable_data 2010-02-22 21:41:29
FromStats_BitRate : 192000
FromStats_Duration : 00:44:00.224000000
FromStats_FrameCount : 82507
FromStats_StreamSize : 63365376

Text
ID : 3
Format : UTF-8
Codec ID : S_TEXT/UTF8
Codec ID/Info : UTF-8 Plain Text
Title : English
Language : English
Default : No
Forced : No
Statistics Tags Issue : no_variable_data 1970-01-01 00:00:00 / no_variable_data 2010-02-22 21:41:29
FromStats_BitRate : 103
FromStats_Duration : 00:43:57.467000000
FromStats_FrameCount : 855
FromStats_StreamSize : 34070





Disasters at Sea S01E01


Disasters at Sea S01E01


Disasters at Sea S01E01


Disasters at Sea S01E01


Disasters at Sea S01E01

All episodes