Featured TV Shows


Dynasty S04E11

Posted By: Tavaz
n/a / n/a IMDb
Dynasty S04E11

Dynasty S04E11
HDTV | MKV | 1280x720 | English | H264 @ 4305 kbps | AC-3 @ 384 kbps | 42 min 58 s | 1.41 GiB
Genre: Drama

The reboot follows two of America’s wealthiest families, the Carringtons and the Colbys, as they feud for control over their fortune and their children focusing on Fallon Carrington, the daughter of billionaire Blake Carrington, and her soon-to-be stepmother, Cristal, a Hispanic woman marrying into this WASP family and America’s most powerful class.

751688aacd1c4a22b8407f4c6251ba8b.mkv (1.4 GB)



General
Unique ID : 248454946294511483284094240706516696845 (0xBAEAAE9D72CB9A2CA19B6630651F3F0D)
Complete name : ./751688aacd1c4a22b8407f4c6251ba8b.mkv
Format : Matroska
Format version : Version 4 / Version 2
File size : 1.41 GiB
Duration : 42 min 58 s
Overall bit rate : 4 688 kb/s
Movie name : Duck Dynasty - S04E11 - O Little Town of West Monroe
Encoded date : UTC 2017-08-25 17:03:03
Writing application : mkvmerge v15.0.0 ('Duel with the Devil') 64-bit
Writing library : libebml v1.3.5 + libmatroska v1.4.5

Video
ID : 1
Format : AVC
Format/Info : Advanced Video Codec
Format profile : High@L4.1
Format settings : CABAC / 5 Ref Frames
Format settings, CABAC : Yes
Format settings, RefFrames : 5 frames
Codec ID : V_MPEG4/ISO/AVC
Duration : 42 min 57 s
Bit rate : 4 305 kb/s
Width : 1 280 pixels
Height : 720 pixels
Display aspect ratio : 16:9
Frame rate mode : Constant
Frame rate : 23.976 (24000/1001) FPS
Color space : YUV
Chroma subsampling : 4:2:0
Bit depth : 8 bits
Scan type : Progressive
Bits/(Pixel*Frame) : 0.195
Stream size : 1.29 GiB (92%)
Default : Yes
Forced : No

Audio
ID : 2
Format : AC-3
Format/Info : Audio Coding 3
Format settings, Endianness : Big
Codec ID : A_AC3
Duration : 42 min 58 s
Bit rate mode : Constant
Bit rate : 384 kb/s
Channel(s) : 6 channels
Channel positions : Front: L C R, Side: L R, LFE
Sampling rate : 48.0 kHz
Frame rate : 31.250 FPS (1536 SPF)
Bit depth : 16 bits
Compression mode : Lossy
Delay relative to video : -1 s 501 ms
Stream size : 118 MiB (8%)
Language : English
Service kind : Complete Main
Default : Yes
Forced : No





Dynasty S04E11


Dynasty S04E11


Dynasty S04E11


Dynasty S04E11


Dynasty S04E11

All episodes