Dynasty S02E11

Posted By: Tavaz
Dynasty S02E11

Dynasty S02E11
MKV | 640x480 | English | H264 @ 347 kbps | MPEG Audio @ 128 kbps | 42 min 12 s | 146 MiB
Subtitles: English
Genre: Drama

The reboot follows two of America’s wealthiest families, the Carringtons and the Colbys, as they feud for control over their fortune and their children focusing on Fallon Carrington, the daughter of billionaire Blake Carrington, and her soon-to-be stepmother, Cristal, a Hispanic woman marrying into this WASP family and America’s most powerful class.

61b984de3fcf474cac8c507718f9d64b.mkv (146.4 MB)



General
Unique ID : 316623280232967526909031214843894615897 (0xEE336CF7568704992AA0184E63E2CF59)
Complete name : ./61b984de3fcf474cac8c507718f9d64b.mkv
Format : Matroska
Format version : Version 4 / Version 2
File size : 146 MiB
Duration : 42 min 12 s
Overall bit rate : 485 kb/s
Writing application : Lavf57.81.100
Writing library : Lavf57.81.100
ErrorDetectionType : Per level 1

Video
ID : 1
Format : AVC
Format/Info : Advanced Video Codec
Format profile : High@L3
Format settings : CABAC / 4 Ref Frames
Format settings, CABAC : Yes
Format settings, RefFrames : 4 frames
Codec ID : V_MPEG4/ISO/AVC
Duration : 42 min 12 s
Bit rate : 347 kb/s
Width : 640 pixels
Height : 480 pixels
Display aspect ratio : 16:9
Frame rate mode : Constant
Frame rate : 23.976 (24000/1001) FPS
Color space : YUV
Chroma subsampling : 4:2:0
Bit depth : 8 bits
Scan type : Progressive
Bits/(Pixel*Frame) : 0.047
Stream size : 105 MiB (72%)
Writing library : x264 core 152 r2851 ba24899
Encoding settings : cabac=1 / ref=1 / deblock=1:0:0 / analyse=0x3:0x113 / me=hex / subme=2 / psy=1 / psy_rd=1.00:0.00 / mixed_ref=0 / me_range=16 / chroma_me=1 / trellis=0 / 8x8dct=1 / cqm=0 / deadzone=21,11 / fast_pskip=1 / chroma_qp_offset=0 / threads=15 / lookahead_threads=3 / sliced_threads=0 / nr=0 / decimate=1 / interlaced=0 / bluray_compat=0 / constrained_intra=0 / bframes=3 / b_pyramid=2 / b_adapt=1 / b_bias=0 / direct=1 / weightb=1 / open_gop=0 / weightp=1 / keyint=250 / keyint_min=23 / scenecut=40 / intra_refresh=0 / rc_lookahead=10 / rc=crf / mbtree=1 / crf=23.0 / qcomp=0.60 / qpmin=0 / qpmax=69 / qpstep=4 / ip_ratio=1.40 / aq=1:1.00
Default : Yes
Forced : No
Statistics Tags Issue : mkvmerge v21.0.0 ('Tardigrades Will Inherit The Earth') 64-bit 2019-01-26 05:34:36 / Lavf57.81.100
FromStats_BitRate : 3285653
FromStats_Duration : 00:42:12.822000000
FromStats_FrameCount : 60727
FromStats_StreamSize : 1040248567

Audio
ID : 2
Format : MPEG Audio
Format version : Version 1
Format profile : Layer 3
Format settings : Joint stereo / MS Stereo
Mode : Joint stereo
Mode extension : MS Stereo
Codec ID : A_MPEG/L3
Codec ID/Hint : MP3
Duration : 42 min 12 s
Bit rate mode : Constant
Bit rate : 128 kb/s
Channel(s) : 2 channels
Sampling rate : 48.0 kHz
Compression mode : Lossy
Delay relative to video : 9 ms
Stream size : 38.6 MiB (26%)
Writing library : Lavc57.105.100 libmp3lame
Language : English
Default : Yes
Forced : No
Statistics Tags Issue : mkvmerge v21.0.0 ('Tardigrades Will Inherit The Earth') 64-bit 2019-01-26 05:34:36 / Lavf57.81.100
FromStats_BitRate : 383991
FromStats_Duration : 00:42:12.821000000
FromStats_FrameCount : 79148
FromStats_StreamSize : 121571328

Text
ID : 3
Format : ASS
Codec ID : S_TEXT/ASS
Codec ID/Info : Advanced Sub Station Alpha
Compression mode : Lossless
Writing library : Lavc57.105.100 ssa
Language : English
Default : No
Forced : No
Statistics Tags Issue : mkvmerge v21.0.0 ('Tardigrades Will Inherit The Earth') 64-bit 2019-01-26 05:34:36 / Lavf57.81.100
FromStats_BitRate : 138
FromStats_Duration : 00:41:54.698000000
FromStats_FrameCount : 1032
FromStats_StreamSize : 43636





Dynasty S02E11


Dynasty S02E11


Dynasty S02E11


Dynasty S02E11


Dynasty S02E11

All episodes