Please register here if you want to download anything!

If domain in your address bar is different from the list below
PLEASE LEAVE THAT SITE IMMEDIATELY
❗IT'S A DANGEROUS FAKE❗



Spicy Magazines for Men! ;-)

Featured TV Shows


Dynasty S02E14

Posted By: Tavaz
Dynasty S02E14

Dynasty S02E14
MKV | 640x480 | English | H264 @ 312 kbps | MPEG Audio @ 128 kbps | 42 min 33 s | 137 MiB
Genre: Drama

The reboot follows two of America’s wealthiest families, the Carringtons and the Colbys, as they feud for control over their fortune and their children focusing on Fallon Carrington, the daughter of billionaire Blake Carrington, and her soon-to-be stepmother, Cristal, a Hispanic woman marrying into this WASP family and America’s most powerful class.

676e59f2bf074f00ac7e727fc1b6525b.mkv (136.8 MB)



General
Unique ID : 70851510196126957762907629059961604344 (0x354D81278373620588332024149D48F8)
Complete name : ./676e59f2bf074f00ac7e727fc1b6525b.mkv
Format : Matroska
Format version : Version 4 / Version 2
File size : 137 MiB
Duration : 42 min 33 s
Overall bit rate : 449 kb/s
Writing application : Lavf57.81.100
Writing library : Lavf57.81.100
ErrorDetectionType : Per level 1

Video
ID : 1
Format : AVC
Format/Info : Advanced Video Codec
Format profile : High@L3
Format settings : CABAC / 4 Ref Frames
Format settings, CABAC : Yes
Format settings, RefFrames : 4 frames
Codec ID : V_MPEG4/ISO/AVC
Duration : 42 min 33 s
Bit rate : 312 kb/s
Width : 640 pixels
Height : 480 pixels
Display aspect ratio : 16:9
Frame rate mode : Constant
Frame rate : 23.976 (24000/1001) FPS
Color space : YUV
Chroma subsampling : 4:2:0
Bit depth : 8 bits
Scan type : Progressive
Bits/(Pixel*Frame) : 0.042
Stream size : 95.1 MiB (70%)
Writing library : x264 core 152 r2851 ba24899
Encoding settings : cabac=1 / ref=1 / deblock=1:0:0 / analyse=0x3:0x113 / me=hex / subme=2 / psy=1 / psy_rd=1.00:0.00 / mixed_ref=0 / me_range=16 / chroma_me=1 / trellis=0 / 8x8dct=1 / cqm=0 / deadzone=21,11 / fast_pskip=1 / chroma_qp_offset=0 / threads=15 / lookahead_threads=3 / sliced_threads=0 / nr=0 / decimate=1 / interlaced=0 / bluray_compat=0 / constrained_intra=0 / bframes=3 / b_pyramid=2 / b_adapt=1 / b_bias=0 / direct=1 / weightb=1 / open_gop=0 / weightp=1 / keyint=250 / keyint_min=23 / scenecut=40 / intra_refresh=0 / rc_lookahead=10 / rc=crf / mbtree=1 / crf=23.0 / qcomp=0.60 / qpmin=0 / qpmax=69 / qpstep=4 / ip_ratio=1.40 / aq=1:1.00
Default : Yes
Forced : No
Statistics Tags Issue : mkvmerge v29.0.0 ('Like It Or Not') 64-bit 2019-03-16 05:05:25 / Lavf57.81.100
FromStats_BitRate : 2401482
FromStats_Duration : 00:42:33.660000000
FromStats_FrameCount : 61225
FromStats_StreamSize : 766551056

Audio
ID : 2
Format : MPEG Audio
Format version : Version 1
Format profile : Layer 3
Format settings : Joint stereo / MS Stereo
Mode : Joint stereo
Mode extension : MS Stereo
Codec ID : A_MPEG/L3
Codec ID/Hint : MP3
Duration : 42 min 33 s
Bit rate mode : Constant
Bit rate : 128 kb/s
Channel(s) : 2 channels
Sampling rate : 44.1 kHz
Compression mode : Lossy
Delay relative to video : -42 ms
Stream size : 39.0 MiB (28%)
Writing library : LAME3.99.5
Language : English
Default : Yes
Forced : No
Statistics Tags Issue : mkvmerge v29.0.0 ('Like It Or Not') 64-bit 2019-03-16 05:05:25 / Lavf57.81.100
FromStats_BitRate : 93588
FromStats_Duration : 00:42:33.639000000
FromStats_FrameCount : 109975
FromStats_StreamSize : 29873549





Dynasty S02E14


Dynasty S02E14


Dynasty S02E14


Dynasty S02E14


Dynasty S02E14

All episodes