Featured TV Shows


Empire S06E07

Posted By: Tavaz
720p (HD) / WEBRip IMDb
Empire S06E07

Empire S06E07
WEBRip | MKV | 1280x720 | English | H264 @ 4689 kbps | E-AC-3 @ 640 kbps | 43 min 52 s | 1.63 GiB
Subtitles: German, English
Genre: Drama, Music


A powerful family drama about the head of a music empire whose three sons and ex-wife all battle for his throne.

8c146f6c82524027ada8de836d1ef4d0.mkv (1.6 GB)



General
Unique ID : 128100270530144460583315913915149867932 (0x605F36F5E9557440E82D7570D0585B9C)
Complete name : ./8c146f6c82524027ada8de836d1ef4d0.mkv
Format : Matroska
Format version : Version 4 / Version 2
File size : 1.63 GiB
Duration : 43 min 52 s
Overall bit rate : 5 331 kb/s
Encoded date : UTC 2019-11-19 23:25:31
Writing application : mkvmerge v40.0.0 ('Old Town Road + Pony') 64-bit
Writing library : libebml v1.3.9 + libmatroska v1.5.2

Video
ID : 1
Format : AVC
Format/Info : Advanced Video Codec
Format profile : High@L3.1
Format settings : CABAC / 4 Ref Frames
Format settings, CABAC : Yes
Format settings, RefFrames : 4 frames
Codec ID : V_MPEG4/ISO/AVC
Duration : 43 min 52 s
Bit rate mode : Constant
Bit rate : 4 689 kb/s
Nominal bit rate : 6 000 kb/s
Width : 1 280 pixels
Height : 720 pixels
Display aspect ratio : 16:9
Frame rate mode : Constant
Frame rate : 23.976 (24000/1001) FPS
Color space : YUV
Chroma subsampling : 4:2:0
Bit depth : 8 bits
Scan type : Progressive
Bits/(Pixel*Frame) : 0.212
Stream size : 1.44 GiB (88%)
Language : English
Default : Yes
Forced : No
Color range : Limited
Color primaries : BT.709
Transfer characteristics : BT.709
Matrix coefficients : BT.709

Audio
ID : 2
Format : E-AC-3
Format/Info : Enhanced Audio Coding 3
Format settings, Endianness : Big
Codec ID : A_EAC3
Duration : 43 min 52 s
Bit rate mode : Constant
Bit rate : 640 kb/s
Channel(s) : 6 channels
Channel positions : Front: L C R, Side: L R, LFE
Sampling rate : 48.0 kHz
Frame rate : 187.500 FPS (256 SPF)
Compression mode : Lossy
Stream size : 201 MiB (12%)
Language : English
Service kind : Complete Main
Default : Yes
Forced : No

Text #1
ID : 3
Format : UTF-8
Codec ID : S_TEXT/UTF8
Codec ID/Info : UTF-8 Plain Text
Duration : 43 min 44 s
Bit rate : 78 b/s
Count of elements : 737
Stream size : 25.2 KiB (0%)
Title : Deutsch
Language : German
Default : No
Forced : No

Text #2
ID : 4
Format : UTF-8
Codec ID : S_TEXT/UTF8
Codec ID/Info : UTF-8 Plain Text
Duration : 43 min 49 s
Bit rate : 94 b/s
Count of elements : 1057
Stream size : 30.2 KiB (0%)
Title : English
Language : English
Default : No
Forced : No





Empire S06E07


Empire S06E07


Empire S06E07


Empire S06E07


Empire S06E07

All episodes