Featured TV Shows


Euphoria S01E03

Posted By: Tavaz
720p (HD) / WEBRip IMDb
Euphoria S01E03

Euphoria S01E03
WEBRip | MKV | 1280x720 | English | H264 @ 1647 kbps | AAC @ 63 kbps | 1 h 1 min | 750 MiB
Genre: Drama


Euphoria portrays a sexy, troubling, and bold profile of the teens of the nineties, within a raging drama going on behind teenagers' closed doors.

euphoria.us.s01e03.720p.web.h264-tbs.mkv (750.0 MB)



General
Unique ID : 157270037613778388533285286017918229544 (0x76511B83C742E9089F701E4A2D1ADC28)
Complete name : ./euphoria.us.s01e03.720p.web.h264-tbs.mkv
Format : Matroska
Format version : Version 4 / Version 2
File size : 750 MiB
Duration : 1 h 1 min
Overall bit rate : 1 713 kb/s
Encoded date : UTC 2019-07-01 02:41:11
Writing application : mkvmerge v24.0.0 ('Beyond The Pale') 64-bit
Writing library : libebml v1.3.6 + libmatroska v1.4.9

Video
ID : 1
Format : AVC
Format/Info : Advanced Video Codec
Format profile : High@L3.1
Format settings : CABAC / 5 Ref Frames
Format settings, CABAC : Yes
Format settings, RefFrames : 5 frames
Codec ID : V_MPEG4/ISO/AVC
Duration : 1 h 1 min
Bit rate : 1 647 kb/s
Width : 1 280 pixels
Height : 720 pixels
Display aspect ratio : 16:9
Frame rate mode : Constant
Frame rate : 23.976 (24000/1001) FPS
Color space : YUV
Chroma subsampling : 4:2:0
Bit depth : 8 bits
Scan type : Progressive
Bits/(Pixel*Frame) : 0.075
Stream size : 721 MiB (96%)
Language : English
Default : Yes
Forced : No

Audio
ID : 2
Format : AAC
Format/Info : Advanced Audio Codec
Format profile : HE-AAC / LC
Format settings : Explicit
Codec ID : A_AAC-2
Duration : 1 h 1 min
Bit rate : 64.0 kb/s
Channel(s) : 2 channels
Channel positions : Front: L R
Sampling rate : 48.0 kHz / 24.0 kHz
Frame rate : 23.438 FPS (1024 SPF)
Compression mode : Lossy
Delay relative to video : 15 ms
Stream size : 28.0 MiB (4%)
Default : Yes
Forced : No





Euphoria S01E03


Euphoria S01E03


Euphoria S01E03


Euphoria S01E03


Euphoria S01E03

All episodes