Featured TV Shows


Euphoria S01E03

Posted By: Tavaz
1080p (FullHD) / HDTV IMDb
Euphoria S01E03

Euphoria S01E03
HDTV | MKV | 1920x1080 | French / English | H264 @ 8530 kbps | E-AC-3 @ 256 kbps | 54 min 22 s | 3.44 GiB
Subtitles: French
Genre: Drama


Euphoria portrays a sexy, troubling, and bold profile of the teens of the nineties, within a raging drama going on behind teenagers' closed doors.

euphoria.us.s01e03.multi.1080p.hdtv.h264-hybris.mkv (3.4 GB)



General
Unique ID : 308864249947711683885382668272999752358 (0xE85D173CDDD798BFB7294FDF8F8A62A6)
Complete name : ./euphoria.us.s01e03.multi.1080p.hdtv.h264-hybris.mkv
Format : Matroska
Format version : Version 4 / Version 2
File size : 3.44 GiB
Duration : 54 min 22 s
Overall bit rate : 9 045 kb/s
Encoded date : UTC 2019-07-01 21:09:48
Writing application : mkvmerge v34.0.0 ('Sight and Seen') 64-bit
Writing library : libebml v1.3.7 + libmatroska v1.5.0

Video
ID : 1
Format : AVC
Format/Info : Advanced Video Codec
Format profile : High@L4
Format settings : CABAC / 4 Ref Frames
Format settings, CABAC : Yes
Format settings, RefFrames : 4 frames
Codec ID : V_MPEG4/ISO/AVC
Duration : 54 min 22 s
Bit rate : 8 531 kb/s
Width : 1 920 pixels
Height : 1 080 pixels
Display aspect ratio : 16:9
Frame rate mode : Variable
Frame rate : 25.000 FPS
Standard : Component
Color space : YUV
Chroma subsampling : 4:2:0
Bit depth : 8 bits
Scan type : MBAFF
Scan type, store method : Separated fields
Scan order : Top Field First
Bits/(Pixel*Frame) : 0.165
Stream size : 3.24 GiB (94%)
Title : Euphoria S01E03
Language : French
Default : Yes
Forced : No
Color range : Limited
Color primaries : BT.709
Transfer characteristics : BT.709
Matrix coefficients : BT.709

Audio #1
ID : 2
Format : E-AC-3
Format/Info : Enhanced Audio Coding 3
Format settings, Endianness : Big
Codec ID : A_EAC3
Duration : 54 min 22 s
Bit rate mode : Constant
Bit rate : 256 kb/s
Channel(s) : 6 channels
Channel positions : Front: L C R, Side: L R, LFE
Sampling rate : 48.0 kHz
Frame rate : 187.500 FPS (256 SPF)
Compression mode : Lossy
Stream size : 99.6 MiB (3%)
Title : Français E-AC3 5.1
Language : French
Service kind : Complete Main
Default : Yes
Forced : No

Audio #2
ID : 3
Format : E-AC-3
Format/Info : Enhanced Audio Coding 3
Format settings, Endianness : Big
Codec ID : A_EAC3
Duration : 54 min 22 s
Bit rate mode : Constant
Bit rate : 256 kb/s
Channel(s) : 6 channels
Channel positions : Front: L C R, Side: L R, LFE
Sampling rate : 48.0 kHz
Frame rate : 187.500 FPS (256 SPF)
Compression mode : Lossy
Stream size : 99.6 MiB (3%)
Title : Anglais E-AC3 5.1
Language : English
Service kind : Complete Main
Default : No
Forced : No

Text
ID : 5
Format : UTF-8
Codec ID : S_TEXT/UTF8
Codec ID/Info : UTF-8 Plain Text
Duration : 52 min 42 s
Bit rate : 49 b/s
Count of elements : 685
Stream size : 18.9 KiB (0%)
Title : Français
Language : French
Default : No
Forced : No





Euphoria S01E03


Euphoria S01E03


Euphoria S01E03


Euphoria S01E03


Euphoria S01E03

All episodes