Featured TV Shows


Euphoria S01E04

Posted By: Tavaz
720p (HD) / WEBRip IMDb
Euphoria S01E04

Euphoria S01E04
WEBRip | MKV | 1280x720 | English | H264 @ 1687 kbps | AAC @ 63 kbps | 1 h 0 min | 752 MiB
Genre: Drama


Euphoria portrays a sexy, troubling, and bold profile of the teens of the nineties, within a raging drama going on behind teenagers' closed doors.

32795011992f4fd7a0b04f6923963a85.mkv (752.5 MB)



General
Unique ID : 243543345638555929264119286003815097891 (0xB738BE019DA26F3D9BB6645B08D32623)
Complete name : ./32795011992f4fd7a0b04f6923963a85.mkv
Format : Matroska
Format version : Version 4 / Version 2
File size : 752 MiB
Duration : 1 h 0 min
Overall bit rate : 1 753 kb/s
Encoded date : UTC 2019-07-08 02:11:54
Writing application : mkvmerge v35.0.0 ('All The Love In The World') 64-bit
Writing library : libebml v1.3.9 + libmatroska v1.5.2

Video
ID : 1
Format : AVC
Format/Info : Advanced Video Codec
Format profile : High@L3.1
Format settings : CABAC / 5 Ref Frames
Format settings, CABAC : Yes
Format settings, RefFrames : 5 frames
Codec ID : V_MPEG4/ISO/AVC
Duration : 1 h 0 min
Bit rate : 1 687 kb/s
Width : 1 280 pixels
Height : 720 pixels
Display aspect ratio : 16:9
Frame rate mode : Constant
Frame rate : 23.976 (24000/1001) FPS
Color space : YUV
Chroma subsampling : 4:2:0
Bit depth : 8 bits
Scan type : Progressive
Bits/(Pixel*Frame) : 0.076
Stream size : 724 MiB (96%)
Language : English
Default : Yes
Forced : No

Audio
ID : 2
Format : AAC
Format/Info : Advanced Audio Codec
Format profile : HE-AAC / LC
Format settings : Explicit
Codec ID : A_AAC-2
Duration : 1 h 0 min
Bit rate : 64.0 kb/s
Channel(s) : 2 channels
Channel positions : Front: L R
Sampling rate : 48.0 kHz / 24.0 kHz
Frame rate : 23.438 FPS (1024 SPF)
Compression mode : Lossy
Delay relative to video : 15 ms
Stream size : 27.5 MiB (4%)
Default : Yes
Forced : No





Euphoria S01E04


Euphoria S01E04


Euphoria S01E04


Euphoria S01E04


Euphoria S01E04

All episodes