Featured TV Shows


Euphoria S01E04

Posted By: Tavaz
1080p (FullHD) / WEBRip IMDb
Euphoria S01E04

Euphoria S01E04
WEBRip | MKV | 1920x1080 | English | H264 @ 7601 kbps | E-AC-3 @ 192 kbps | 1 h 0 min | 3.28 GiB
Subtitles: English
Genre: Drama


Euphoria portrays a sexy, troubling, and bold profile of the teens of the nineties, within a raging drama going on behind teenagers' closed doors.

euphoria.us.s01e04.1080p.web.h264-convoy.mkv (3.3 GB)



General
Unique ID : 18932616934490612882010448801617115946 (0xE3E4A15548FC52B77A33B5EBBBF7B2A)
Complete name : ./euphoria.us.s01e04.1080p.web.h264-convoy.mkv
Format : Matroska
Format version : Version 4 / Version 2
File size : 3.28 GiB
Duration : 1 h 0 min
Overall bit rate : 7 795 kb/s
Movie name : Euphoria.US.S01E04.1080p.WEB.h264-CONVOY
Encoded date : UTC 2019-07-08 05:00:55
Writing application : mkvmerge v24.0.0 ('Beyond The Pale') 64-bit
Writing library : libebml v1.3.6 + libmatroska v1.4.9

Video
ID : 1
Format : AVC
Format/Info : Advanced Video Codec
Format profile : High@L4
Format settings : CABAC / 4 Ref Frames
Format settings, CABAC : Yes
Format settings, RefFrames : 4 frames
Codec ID : V_MPEG4/ISO/AVC
Duration : 1 h 0 min
Bit rate mode : Constant
Bit rate : 7 601 kb/s
Nominal bit rate : 10 000 kb/s
Width : 1 920 pixels
Height : 1 080 pixels
Display aspect ratio : 16:9
Frame rate mode : Constant
Frame rate : 23.976 (24000/1001) FPS
Color space : YUV
Chroma subsampling : 4:2:0
Bit depth : 8 bits
Scan type : Progressive
Bits/(Pixel*Frame) : 0.153
Stream size : 3.20 GiB (98%)
Language : English
Default : Yes
Forced : No
Color range : Limited
Color primaries : BT.709
Transfer characteristics : BT.709
Matrix coefficients : BT.709

Audio
ID : 2
Format : E-AC-3
Format/Info : Enhanced Audio Coding 3
Format settings, Endianness : Big
Codec ID : A_EAC3
Duration : 1 h 0 min
Bit rate mode : Constant
Bit rate : 192 kb/s
Channel(s) : 6 channels
Channel positions : Front: L C R, Side: L R, LFE
Sampling rate : 48.0 kHz
Frame rate : 187.500 FPS (256 SPF)
Compression mode : Lossy
Delay relative to video : 16 ms
Stream size : 82.7 MiB (2%)
Language : English
Service kind : Complete Main
Default : Yes
Forced : No

Text
ID : 3
Format : UTF-8
Codec ID : S_TEXT/UTF8
Codec ID/Info : UTF-8 Plain Text
Duration : 54 min 6 s
Bit rate : 64 b/s
Count of elements : 817
Stream size : 25.8 KiB (0%)
Title : SRT
Language : English
Default : No
Forced : No





Euphoria S01E04


Euphoria S01E04


Euphoria S01E04


Euphoria S01E04


Euphoria S01E04

All episodes