Featured TV Shows


Euphoria S01E06

Posted By: Tavaz
1080p (FullHD) / HDTV IMDb
Euphoria S01E06

Euphoria S01E06
HDTV | MKV | 1920x1080 | French / English | H264 @ 8514 kbps | E-AC-3 @ 256 kbps | 48 min 13 s | 3.04 GiB
Subtitles: French
Genre: Drama


Euphoria portrays a sexy, troubling, and bold profile of the teens of the nineties, within a raging drama going on behind teenagers' closed doors.

euphoria.us.s01e06.multi.1080p.hdtv.h264-hybris.mkv (3.0 GB)



General
Unique ID : 209339332292666574493837561092201761198 (0x9D7D49F2BB69BE90E9D374C932B3C9AE)
Complete name : ./euphoria.us.s01e06.multi.1080p.hdtv.h264-hybris.mkv
Format : Matroska
Format version : Version 4 / Version 2
File size : 3.04 GiB
Duration : 48 min 13 s
Overall bit rate : 9 029 kb/s
Encoded date : UTC 2019-07-22 20:55:33
Writing application : mkvmerge v34.0.0 ('Sight and Seen') 64-bit
Writing library : libebml v1.3.7 + libmatroska v1.5.0

Video
ID : 1
Format : AVC
Format/Info : Advanced Video Codec
Format profile : High@L4
Format settings : CABAC / 4 Ref Frames
Format settings, CABAC : Yes
Format settings, RefFrames : 4 frames
Codec ID : V_MPEG4/ISO/AVC
Duration : 48 min 13 s
Bit rate : 8 515 kb/s
Width : 1 920 pixels
Height : 1 080 pixels
Display aspect ratio : 16:9
Frame rate mode : Variable
Frame rate : 25.000 FPS
Standard : Component
Color space : YUV
Chroma subsampling : 4:2:0
Bit depth : 8 bits
Scan type : MBAFF
Scan type, store method : Separated fields
Scan order : Top Field First
Bits/(Pixel*Frame) : 0.164
Stream size : 2.87 GiB (94%)
Title : Euphoria S01E06
Language : French
Default : Yes
Forced : No
Color range : Limited
Color primaries : BT.709
Transfer characteristics : BT.709
Matrix coefficients : BT.709

Audio #1
ID : 2
Format : E-AC-3
Format/Info : Enhanced Audio Coding 3
Format settings, Endianness : Big
Codec ID : A_EAC3
Duration : 48 min 13 s
Bit rate mode : Constant
Bit rate : 256 kb/s
Channel(s) : 6 channels
Channel positions : Front: L C R, Side: L R, LFE
Sampling rate : 48.0 kHz
Frame rate : 187.500 FPS (256 SPF)
Compression mode : Lossy
Stream size : 88.3 MiB (3%)
Title : Français E-AC3 5.1
Language : French
Service kind : Complete Main
Default : Yes
Forced : No

Audio #2
ID : 3
Format : E-AC-3
Format/Info : Enhanced Audio Coding 3
Format settings, Endianness : Big
Codec ID : A_EAC3
Duration : 48 min 13 s
Bit rate mode : Constant
Bit rate : 256 kb/s
Channel(s) : 6 channels
Channel positions : Front: L C R, Side: L R, LFE
Sampling rate : 48.0 kHz
Frame rate : 187.500 FPS (256 SPF)
Compression mode : Lossy
Stream size : 88.3 MiB (3%)
Title : Anglais E-AC3 5.1
Language : English
Service kind : Complete Main
Default : No
Forced : No

Text
ID : 5
Format : UTF-8
Codec ID : S_TEXT/UTF8
Codec ID/Info : UTF-8 Plain Text
Duration : 46 min 46 s
Bit rate : 46 b/s
Count of elements : 567
Stream size : 15.9 KiB (0%)
Title : Français
Language : French
Default : No
Forced : No





Euphoria S01E06


Euphoria S01E06


Euphoria S01E06


Euphoria S01E06


Euphoria S01E06

All episodes