Featured TV Shows


FBI: Most Wanted S02E02

Posted By: Tavaz
720p (HD) / HDTV IMDb
FBI: Most Wanted S02E02

FBI: Most Wanted S02E02
HDTV | MKV | 1280x720 | H264 @ 2662 kbps | AC-3 @ 384 kbps | 39 min 40 s | 865 MiB
Genre: Drama


The Fugitive Task Force relentlessly tracks and captures the notorious criminals on the Bureau’s Most Wanted list. Seasoned agent Jess LaCroix oversees the highly skilled team that functions as a mobile undercover unit that is always out in the field, pursuing those who are most desperate to elude justice.

7359bcefda4108dd6d6540e9ff5024bb.mkv (865.2 MB)



General
Unique ID : 331337552690992685294320825006590722791 (0xF9454A9BFE1469A4D7EFD958E7DF02E7)
Complete name : ./7359bcefda4108dd6d6540e9ff5024bb.mkv
Format : Matroska
Format version : Version 4 / Version 2
File size : 865 MiB
Duration : 39 min 40 s
Overall bit rate : 3 049 kb/s
Encoded date : UTC 2020-11-25 04:01:29
Writing application : mkvmerge v51.0.0 ('I Wish') 64-bit
Writing library : libebml v1.4.0 + libmatroska v1.6.2

Video
ID : 1
Format : AVC
Format/Info : Advanced Video Codec
Format profile : High@L4.1
Format settings : CABAC / 5 Ref Frames
Format settings, CABAC : Yes
Format settings, RefFrames : 5 frames
Codec ID : V_MPEG4/ISO/AVC
Duration : 39 min 40 s
Bit rate : 2 663 kb/s
Width : 1 280 pixels
Height : 720 pixels
Display aspect ratio : 16:9
Frame rate mode : Constant
Frame rate : 23.976 (24000/1001) FPS
Color space : YUV
Chroma subsampling : 4:2:0
Bit depth : 8 bits
Scan type : Progressive
Bits/(Pixel*Frame) : 0.121
Stream size : 756 MiB (87%)
Writing library : x264 core 161 r3027 4121277
Encoding settings : cabac=1 / ref=5 / deblock=1:0:0 / analyse=0x3:0x113 / me=hex / subme=8 / psy=1 / psy_rd=1.00:0.00 / mixed_ref=1 / me_range=16 / chroma_me=1 / trellis=2 / 8x8dct=1 / cqm=0 / deadzone=21,11 / fast_pskip=1 / chroma_qp_offset=-2 / threads=22 / lookahead_threads=3 / sliced_threads=0 / nr=0 / decimate=1 / interlaced=0 / bluray_compat=0 / constrained_intra=0 / bframes=3 / b_pyramid=2 / b_adapt=1 / b_bias=0 / direct=3 / weightb=1 / open_gop=0 / weightp=2 / keyint=250 / keyint_min=23 / scenecut=40 / intra_refresh=0 / rc_lookahead=50 / rc=crf / mbtree=1 / crf=18.0 / qcomp=0.60 / qpmin=0 / qpmax=69 / qpstep=4 / ip_ratio=1.40 / aq=1:1.00
Language : English
Default : Yes
Forced : No
Color range : Limited
Matrix coefficients : BT.709

Audio
ID : 2
Format : AC-3
Format/Info : Audio Coding 3
Format settings, Endianness : Big
Codec ID : A_AC3
Duration : 39 min 40 s
Bit rate mode : Constant
Bit rate : 384 kb/s
Channel(s) : 6 channels
Channel positions : Front: L C R, Side: L R, LFE
Sampling rate : 48.0 kHz
Frame rate : 31.250 FPS (1536 SPF)
Bit depth : 16 bits
Compression mode : Lossy
Stream size : 109 MiB (13%)
Service kind : Complete Main
Default : Yes
Forced : No





FBI: Most Wanted S02E02


FBI: Most Wanted S02E02


FBI: Most Wanted S02E02


FBI: Most Wanted S02E02


FBI: Most Wanted S02E02

All episodes