Featured TV Shows


Family Guy S04E01

Posted By: Tavaz
SD / DVDRip IMDb
Family Guy S04E01

Family Guy S04E01
DVDRip | AVI | 576x432 | MP4V-ES @ 960 kbps | MPEG Audio @ 144 kbps | 21 min 59 s | 176 MiB
Genre: Animation, Comedy

Sick, twisted, politically incorrect and Freakin' Sweet animated series featuring the adventures of the dysfunctional Griffin family. Bumbling Peter and long-suffering Lois have three kids. Stewie (a brilliant but sadistic baby bent on killing his mother and taking over the world), Meg (the oldest, and is the most unpopular girl in town) and Chris (the middle kid, he's not very bright but has a passion for movies). The final member of the family is Brian - a talking dog and much more than a pet, he keeps Stewie in check whilst sipping Martinis and sorting through his own life issues.

Family.Guy.S04E01.DVDRip.XviD-SAPHiRE.avi (175.8 MB)
sph-fguy401-sample.avi (8.1 MB)
Family.Guy.S04E01.DVDRip.XviD-SAPHiRE.idx (52.7 KB)
Family.Guy.S04E01.DVDRip.XviD-SAPHiRE.sub (3.2 MB)
Family.Guy.S04E02.DVDRip.XviD-SAPHiRE.avi (175.8 MB)
sph-fguy402-sample.avi (10.3 MB)
Family.Guy.S04E02.DVDRip.XviD-SAPHiRE.idx (50.9 KB)
Family.Guy.S04E02.DVDRip.XviD-SAPHiRE.sub (3.2 MB)



General
Complete name : ./Family.Guy.S04E01.DVDRip.XviD-SAPHiRE/Family.Guy.S04E01.DVDRip.XviD-SAPHiRE.avi
Format : AVI
Format/Info : Audio Video Interleave
File size : 176 MiB
Duration : 21 min 59 s
Overall bit rate mode : Variable
Overall bit rate : 1 118 kb/s
Writing application : VirtualDubMod 1.5.10.2 (build 2540/release)
Writing library : VirtualDubMod build 2540/release

Video
ID : 0
Format : MPEG-4 Visual
Format profile : Advanced Simple@L5
Format settings : BVOP1
Format settings, BVOP : 1
Format settings, QPel : No
Format settings, GMC : No warppoints
Format settings, Matrix : Default (MPEG)
Codec ID : XVID
Codec ID/Hint : XviD
Duration : 21 min 59 s
Bit rate : 961 kb/s
Width : 576 pixels
Height : 432 pixels
Display aspect ratio : 4:3
Frame rate : 23.976 (24000/1001) FPS
Color space : YUV
Chroma subsampling : 4:2:0
Bit depth : 8 bits
Scan type : Progressive
Compression mode : Lossy
Bits/(Pixel*Frame) : 0.161
Stream size : 151 MiB (86%)
Writing library : XviD 0039 build=2005.10.08 (UTC 2005-10-08)

Audio
ID : 1
Format : MPEG Audio
Format version : Version 1
Format profile : Layer 3
Format settings : Joint stereo / MS Stereo
Mode : Joint stereo
Mode extension : MS Stereo
Codec ID : 55
Codec ID/Hint : MP3
Duration : 21 min 59 s
Bit rate mode : Variable
Bit rate : 144 kb/s
Minimum bit rate : 128 kb/s
Channel(s) : 2 channels
Sampling rate : 48.0 kHz
Compression mode : Lossy
Stream size : 22.7 MiB (13%)
Alignment : Aligned on interleaves
Interleave, duration : 24 ms (0.58 video frame)
Interleave, preload duration : 457 ms
Writing library : LAME3.97b
Encoding settings : -m j -V 2 -q 3 -lowpass 18.6 –vbr-new -b 128





Family Guy S04E01


Family Guy S04E01


Family Guy S04E01


Family Guy S04E01


Family Guy S04E01

All episodes