Featured TV Shows


FBI: Most Wanted S02E02

Posted By: Tavaz
1080p (FullHD) / WEBRip IMDb
FBI: Most Wanted S02E02

FBI: Most Wanted S02E02
WEBRip | MKV | 1920x1080 | English | H264 @ 8848 kbps | E-AC-3 @ 640 kbps | 40 min 25 s | 2.73 GiB
Subtitles: English
Genre: Drama


The Fugitive Task Force relentlessly tracks and captures the notorious criminals on the Bureau’s Most Wanted list. Seasoned agent Jess LaCroix oversees the highly skilled team that functions as a mobile undercover unit that is always out in the field, pursuing those who are most desperate to elude justice.

5d617ac7ed194297bf6a037917530ec2.mkv (2.7 GB)



General
Unique ID : 197448137440228373827641936544780337627 (0x948B20C6F6FE8108AF5FFD0C6B2541DB)
Complete name : ./5d617ac7ed194297bf6a037917530ec2.mkv
Format : Matroska
Format version : Version 4 / Version 2
File size : 2.73 GiB
Duration : 40 min 25 s
Overall bit rate : 9 681 kb/s
Writing application : mkvmerge v49.0.0 ('Sick Of Losing Soulmates') 64-bit
Writing library : libebml v1.4.0 + libmatroska v1.6.1

Video
ID : 1
Format : AVC
Format/Info : Advanced Video Codec
Format profile : High@L4
Format settings : CABAC / 4 Ref Frames
Format settings, CABAC : Yes
Format settings, RefFrames : 4 frames
Codec ID : V_MPEG4/ISO/AVC
Duration : 40 min 25 s
Bit rate mode : Constant
Bit rate : 8 849 kb/s
Nominal bit rate : 10 000 kb/s
Width : 1 920 pixels
Height : 1 080 pixels
Display aspect ratio : 16:9
Frame rate mode : Constant
Frame rate : 24.000 FPS
Color space : YUV
Chroma subsampling : 4:2:0
Bit depth : 8 bits
Scan type : Progressive
Bits/(Pixel*Frame) : 0.178
Stream size : 2.50 GiB (91%)
Default : Yes
Forced : No
Color range : Limited
Color primaries : BT.709
Transfer characteristics : BT.709
Matrix coefficients : BT.709

Audio
ID : 2
Format : E-AC-3
Format/Info : Enhanced Audio Coding 3
Format settings, Endianness : Big
Codec ID : A_EAC3
Duration : 40 min 25 s
Bit rate mode : Constant
Bit rate : 640 kb/s
Channel(s) : 6 channels
Channel positions : Front: L C R, Side: L R, LFE
Sampling rate : 48.0 kHz
Frame rate : 187.500 FPS (256 SPF)
Compression mode : Lossy
Stream size : 185 MiB (7%)
Language : English
Service kind : Complete Main
Default : Yes
Forced : No

Text
ID : 3
Format : UTF-8
Codec ID : S_TEXT/UTF8
Codec ID/Info : UTF-8 Plain Text
Title : English
Language : English
Default : No
Forced : No





FBI: Most Wanted S02E02


FBI: Most Wanted S02E02


FBI: Most Wanted S02E02


FBI: Most Wanted S02E02


FBI: Most Wanted S02E02

All episodes