Finding Your Roots S04E10

Posted By: Tavaz
SD / WEB-DL IMDb
Finding Your Roots S04E10

Finding Your Roots S04E10
WEB-DL | MOV | 768x432 | English | H264 @ 1099 kbps | AAC @ 93 kbps | 52 min 11 s | 449 MiB
Genre: Documentary

Noted Harvard scholar Henry Louis Gates, Jr. has been helping people discover long-lost relatives hidden for generations within the branches of their family trees. Professor Gates utilizes a team of genealogists to reconstruct the paper trail left behind by our ancestors and the world’s leading geneticists to decode our DNA and help us travel thousands of years into the past to discover the origins of our earliest forebears.

Finding.Your.Roots.S04E10.Funny.Business.WEB-DL.x264-JIVE.mp4 (448.5 MB)



General
Complete name : ./Finding.Your.Roots.S04E10.Funny.Business.WEB-DL.x264-JIVE.mp4
Format : MPEG-4
Format profile : Base Media
Codec ID : isom (isom/iso2/avc1/mp41)
File size : 449 MiB
Duration : 52 min 11 s
Overall bit rate mode : Variable
Overall bit rate : 1 202 kb/s
Movie name : Finding Your Roots S04E10
Writing application : Lavf57.71.100
Comment : {name}

Video
ID : 1
Format : AVC
Format/Info : Advanced Video Codec
Format profile : High@L3
Format settings : CABAC / 3 Ref Frames
Format settings, CABAC : Yes
Format settings, RefFrames : 3 frames
Format settings, GOP : M=4, N=60
Codec ID : avc1
Codec ID/Info : Advanced Video Coding
Duration : 52 min 11 s
Bit rate mode : Constant
Bit rate : 1 100 kb/s
Width : 768 pixels
Height : 432 pixels
Display aspect ratio : 16:9
Frame rate mode : Constant
Frame rate : 29.970 (30000/1001) FPS
Color space : YUV
Chroma subsampling : 4:2:0
Bit depth : 8 bits
Scan type : Progressive
Bits/(Pixel*Frame) : 0.111
Stream size : 411 MiB (92%)

Audio
ID : 2
Format : AAC
Format/Info : Advanced Audio Codec
Format profile : LC
Codec ID : mp4a-40-2
Duration : 52 min 11 s
Bit rate mode : Variable
Bit rate : 93.4 kb/s
Maximum bit rate : 96.0 kb/s
Channel(s) : 2 channels
Channel positions : Front: L R
Sampling rate : 48.0 kHz
Frame rate : 46.875 FPS (1024 SPF)
Compression mode : Lossy
Stream size : 34.9 MiB (8%)
Language : English
Default : Yes
Alternate group : 1





Finding Your Roots S04E10


Finding Your Roots S04E10


Finding Your Roots S04E10


Finding Your Roots S04E10


Finding Your Roots S04E10

All episodes