Featured TV Shows


Fosse/Verdon S01E06

Posted By: Tavaz
720p (HD) / WEBRip IMDb
Fosse/Verdon S01E06

Fosse/Verdon S01E06
WEBRip | MKV | 1280x640 | English | H264 @ 1970 kbps | AAC @ 126 kbps | 43 min 21 s | 651 MiB
Subtitles: English
Genre: Drama


The story of the romantic and creative partnership between Bob Fosse and Gwen Verdon. He was a filmmaker and one of theater's most influential choreographers and directors; she was the greatest Broadway dancer of all time. Together, they changed the face of American entertainment — at a perilous cost.

cf1c6caa33734e3f86b778f7d3402c45.mkv (651.2 MB)



General
Unique ID : 104985001022579232302953478062396067971 (0x4EFB602F0F91538248E1CB138636D083)
Complete name : ./cf1c6caa33734e3f86b778f7d3402c45.mkv
Format : Matroska
Format version : Version 4 / Version 2
File size : 651 MiB
Duration : 43 min 21 s
Overall bit rate : 2 100 kb/s
Encoded date : UTC 2019-05-15 03:44:58
Writing application : mkvmerge v22.0.0 ('At The End Of The World') 64-bit
Writing library : libebml v1.3.5 + libmatroska v1.4.8

Video
ID : 1
Format : AVC
Format/Info : Advanced Video Codec
Format profile : High@L3.1
Format settings : CABAC / 4 Ref Frames
Format settings, CABAC : Yes
Format settings, RefFrames : 4 frames
Codec ID : V_MPEG4/ISO/AVC
Duration : 43 min 21 s
Bit rate : 1 971 kb/s
Width : 1 280 pixels
Height : 640 pixels
Display aspect ratio : 2.000
Frame rate mode : Constant
Frame rate : 23.976 (24000/1001) FPS
Color space : YUV
Chroma subsampling : 4:2:0
Bit depth : 8 bits
Scan type : Progressive
Bits/(Pixel*Frame) : 0.100
Stream size : 611 MiB (94%)
Writing library : x264 core 157 r2969 d4099dd
Encoding settings : cabac=1 / ref=3 / deblock=1:0:0 / analyse=0x3:0x113 / me=hex / subme=7 / psy=1 / psy_rd=1.00:0.00 / mixed_ref=1 / me_range=16 / chroma_me=1 / trellis=1 / 8x8dct=1 / cqm=0 / deadzone=21,11 / fast_pskip=1 / chroma_qp_offset=-2 / threads=12 / lookahead_threads=2 / sliced_threads=0 / nr=0 / decimate=1 / interlaced=0 / bluray_compat=0 / constrained_intra=0 / bframes=3 / b_pyramid=2 / b_adapt=1 / b_bias=0 / direct=1 / weightb=1 / open_gop=0 / weightp=2 / keyint=250 / keyint_min=23 / scenecut=40 / intra_refresh=0 / rc_lookahead=40 / rc=crf / mbtree=1 / crf=19.0 / qcomp=0.60 / qpmin=0 / qpmax=69 / qpstep=4 / ip_ratio=1.40 / aq=1:1.00
Default : Yes
Forced : No

Audio
ID : 2
Format : AAC
Format/Info : Advanced Audio Codec
Format profile : HE-AAC / LC
Format settings : Implicit
Codec ID : A_AAC-2
Duration : 43 min 21 s
Bit rate : 127 kb/s
Channel(s) : 2 channels
Channel positions : Front: L R
Sampling rate : 48.0 kHz / 24.0 kHz
Frame rate : 23.438 FPS (1024 SPF)
Compression mode : Lossy
Stream size : 39.3 MiB (6%)
Language : English
Default : Yes
Forced : No

Text
ID : 3
Format : UTF-8
Codec ID : S_TEXT/UTF8
Codec ID/Info : UTF-8 Plain Text
Duration : 42 min 43 s
Bit rate : 121 b/s
Count of elements : 924
Stream size : 37.9 KiB (0%)
Language : English
Default : Yes
Forced : No





Fosse/Verdon S01E06


Fosse/Verdon S01E06


Fosse/Verdon S01E06


Fosse/Verdon S01E06


Fosse/Verdon S01E06

All episodes