Featured TV Shows


Fosse/Verdon S01E06

Posted By: Tavaz
1080p (FullHD) / WEB-DL IMDb
Fosse/Verdon S01E06

Fosse/Verdon S01E06
WEB-DL | MKV | 1920x1080 | English | H264 @ 3347 kbps | AC-3 @ 384 kbps | 41 min 4 s | 1.07 GiB
Genre: Drama


The story of the romantic and creative partnership between Bob Fosse and Gwen Verdon. He was a filmmaker and one of theater's most influential choreographers and directors; she was the greatest Broadway dancer of all time. Together, they changed the face of American entertainment — at a perilous cost.

4ee70287a5f84687bd0a4a5ce52a4eff.mkv (1.1 GB)



General
Unique ID : 273857543052754597711624544832787522996 (0xCE070B5506F4B25B057D28488C7725B4)
Complete name : ./4ee70287a5f84687bd0a4a5ce52a4eff.mkv
Format : Matroska
Format version : Version 4 / Version 2
File size : 1.07 GiB
Duration : 41 min 4 s
Overall bit rate mode : Variable
Overall bit rate : 3 734 kb/s
Encoded date : UTC 2019-05-15 10:39:36
Writing application : mkvmerge v30.1.0 ('Forever And More') 64-bit
Writing library : libebml v1.3.6 + libmatroska v1.4.9

Video
ID : 1
Format : AVC
Format/Info : Advanced Video Codec
Format profile : High@L4
Format settings : CABAC / 4 Ref Frames
Format settings, CABAC : Yes
Format settings, RefFrames : 4 frames
Codec ID : V_MPEG4/ISO/AVC
Duration : 41 min 4 s
Bit rate mode : Variable
Bit rate : 3 348 kb/s
Maximum bit rate : 5 100 kb/s
Width : 1 920 pixels
Height : 1 080 pixels
Display aspect ratio : 16:9
Frame rate mode : Constant
Frame rate : 25.000 FPS
Color space : YUV
Chroma subsampling : 4:2:0
Bit depth : 8 bits
Scan type : Progressive
Bits/(Pixel*Frame) : 0.065
Stream size : 983 MiB (90%)
Default : Yes
Forced : No

Audio
ID : 2
Format : AC-3
Format/Info : Audio Coding 3
Format settings, Endianness : Big
Codec ID : A_AC3
Duration : 41 min 4 s
Bit rate mode : Constant
Bit rate : 384 kb/s
Channel(s) : 6 channels
Channel positions : Front: L C R, Side: L R, LFE
Sampling rate : 48.0 kHz
Frame rate : 31.250 FPS (1536 SPF)
Bit depth : 16 bits
Compression mode : Lossy
Stream size : 113 MiB (10%)
Service kind : Complete Main
Default : Yes
Forced : No





Fosse/Verdon S01E06


Fosse/Verdon S01E06


Fosse/Verdon S01E06


Fosse/Verdon S01E06


Fosse/Verdon S01E06

All episodes