Featured TV Shows


Fosse/Verdon S01E08

Posted By: Tavaz
720p (HD) / WEBRip IMDb
Fosse/Verdon S01E08

Fosse/Verdon S01E08
WEBRip | MKV | 1280x640 | English | H264 @ 1874 kbps | AAC @ 128 kbps | 57 min 37 s | 826 MiB
Subtitles: English
Genre: Drama


The story of the romantic and creative partnership between Bob Fosse and Gwen Verdon. He was a filmmaker and one of theater's most influential choreographers and directors; she was the greatest Broadway dancer of all time. Together, they changed the face of American entertainment — at a perilous cost.

e78567a242f94e7c9db4e77308f63e62.mkv (826.5 MB)



General
Unique ID : 26008283389891615848978481606320136669 (0x1391035FA6AF482ABD040ACB249721DD)
Complete name : ./e78567a242f94e7c9db4e77308f63e62.mkv
Format : Matroska
Format version : Version 4 / Version 2
File size : 826 MiB
Duration : 57 min 37 s
Overall bit rate : 2 005 kb/s
Encoded date : UTC 2019-05-29 08:29:50
Writing application : mkvmerge v34.0.0 ('Sight and Seen') 64-bit
Writing library : libebml v1.3.7 + libmatroska v1.5.0

Video
ID : 1
Format : AVC
Format/Info : Advanced Video Codec
Format profile : High@L4.1
Format settings : CABAC / 5 Ref Frames
Format settings, CABAC : Yes
Format settings, RefFrames : 5 frames
Codec ID : V_MPEG4/ISO/AVC
Duration : 57 min 37 s
Bit rate : 1 875 kb/s
Width : 1 280 pixels
Height : 640 pixels
Display aspect ratio : 2.000
Frame rate mode : Constant
Frame rate : 23.976 (24000/1001) FPS
Color space : YUV
Chroma subsampling : 4:2:0
Bit depth : 8 bits
Scan type : Progressive
Bits/(Pixel*Frame) : 0.095
Stream size : 773 MiB (93%)
Writing library : x264 core 157 r2969 d4099dd
Encoding settings : cabac=1 / ref=5 / deblock=1:-3:-3 / analyse=0x3:0x113 / me=hex / subme=8 / psy=1 / psy_rd=1.00:0.15 / mixed_ref=1 / me_range=16 / chroma_me=1 / trellis=2 / 8x8dct=1 / cqm=0 / deadzone=21,11 / fast_pskip=1 / chroma_qp_offset=-3 / threads=20 / lookahead_threads=3 / sliced_threads=0 / nr=0 / decimate=1 / interlaced=0 / bluray_compat=0 / constrained_intra=0 / bframes=3 / b_pyramid=2 / b_adapt=1 / b_bias=0 / direct=3 / weightb=1 / open_gop=0 / weightp=2 / keyint=250 / keyint_min=23 / scenecut=40 / intra_refresh=0 / rc_lookahead=50 / rc=crf / mbtree=1 / crf=18.0 / qcomp=0.60 / qpmin=0 / qpmax=69 / qpstep=4 / vbv_maxrate=17500 / vbv_bufsize=17500 / crf_max=0.0 / nal_hrd=none / filler=0 / ip_ratio=1.40 / aq=1:0.60
Default : Yes
Forced : No
Color range : Limited
Matrix coefficients : BT.709

Audio
ID : 2
Format : AAC
Format/Info : Advanced Audio Codec
Format profile : LC
Codec ID : A_AAC-2
Duration : 57 min 37 s
Bit rate : 128 kb/s
Channel(s) : 2 channels
Channel positions : Front: L R
Sampling rate : 44.1 kHz
Frame rate : 43.066 FPS (1024 SPF)
Compression mode : Lossy
Stream size : 52.8 MiB (6%)
Language : English
Default : Yes
Forced : No

Text
ID : 3
Format : UTF-8
Codec ID : S_TEXT/UTF8
Codec ID/Info : UTF-8 Plain Text
Duration : 56 min 38 s
Bit rate : 79 b/s
Count of elements : 1132
Stream size : 33.1 KiB (0%)
Language : English
Default : No
Forced : No





Fosse/Verdon S01E08


Fosse/Verdon S01E08


Fosse/Verdon S01E08


Fosse/Verdon S01E08


Fosse/Verdon S01E08

All episodes